Tags
Language
Tags

David Arnold - Good Omens [2019] [Soundtrack]

Posted By: Aregak
David Arnold - Good Omens [2019] [Soundtrack]

David Arnold - Good Omens [2019] [Soundtrack]
EAC Rip | FLAC, TRACKS+CUE, LOG, Covers) | 01:29:18 | 598.32 MB
Score | Silva Screen | SILCD1593

Composer David Arnold’s soundtrack to the highly anticipated TV adaptation of Neil Gaiman and Terry Pratchett’s 1990 comic fable that packs a punch.
Following the odd couple, angel Aziraphale (Michael Sheen) and demon Crowley (David Tennant) in their quest to sabotage the end of the World, Amazon Prime's six episode miniseries delivers a tongue in cheek adaptation of this powerful and funny story. From the Award-winning composer of Sherlock and Casino Royale comes a soundtrack that perfectly complements the Good Omens’ drama and visual sensibilities. At times nostalgic and eerie but always varied, beautiful and full of excitement, this robust, yet funny music entity has
become another character in the story. Here, Arnold has created a contemporary soundworld for heaven and hell.
The closing song is Tori Amos’ version of A Nightingale Sang In Berkeley Square, a British wartime favourite referenced at the end of the book, conjuring feelings of separation and pining for untroubled times, and including the lines "There was magic abroad in the air. There were angels dining at the Ritz. And a nightingale sang in Berkeley square".
Good Omens is produced by BBC Studios, Amazon Studios, Blank Corporation and Narrativia.
The series is directed by Douglas Mackinnon and features the all-star cast including Michael Sheen, David Arnold, Frances McDorman, Brian Cox, Benedict Cumberbatch, Jon Hamm.
David Arnold is one of the UK’s leading film composers, composing scores for blockbusters including Stargate, The Chronicles of Narnia: the Voyage of the Dawn Treader, Hot Fuzz, Paul, Independence Day, 2 Fast 2 Furious and Casino Royale.
Also available on Silva Screen Records are David Arnold’s soundtracks Sherlock Series 1, Sherlock Series 2, Sherlock Series 3, Sherlock Series 4 and Sherlock - The Abominable Bride.
The Good Omens TV series launches on Amazon Prime Video around the world on Friday 31st May 2019 and will be shown on BBC2 in the autumn.
Track list - CD 1:
01. Good Omens Opening Title [0:02:11.41]
02. Chattering Nuns [0:02:47.39]
03. Three Card Switch [0:02:11.32]
04. Warlock [0:00:29.06]
05. Adam [0:01:16.33]
06. Lullaby [0:01:00.59]
07. Hell Hound [0:01:23.35]
08. Wrong Boy [0:02:51.56]
09. We're Doomed [0:00:31.03]
10. End Titles - The Theme That Got Left in the Car [0:02:03.53]
11. Witch [0:02:18.29]
12. Newt [0:00:46.25]
13. Anathema [0:01:08.35]
14. The Them [0:01:50.66]
15. Anathema Meets Them [0:01:49.49]
16. Paintball [0:01:04.09]
17. Anathema Investigates [0:01:06.07]
18. Sleeping Adam [0:01:21.40]
19. I Should Cocoa [0:02:16.04]
20. Crucified [0:01:57.65]
21. The Black Knight [0:01:12.07]
22. The Globe [0:00:30.39]
23. St.James Park [0:00:56.51]
24. Holy Water [0:01:09.74]
25. Adam and Dog [0:01:00.46]
26. We're Not Killing Anybody [0:01:29.06]
27. Atlantis [0:01:14.55]
28. Gabriel [0:00:44.43]
29. Bad Angel Michael [0:01:39.60]
30. Delivery for Pollution [0:01:46.54]
31. Message for Mr Death [0:00:57.16]
32. Aliens! [0:01:36.50]

Track list - CD 2:
01. Ambassador Arrives [0:00:36.25]
02. Ansaphone [0:00:37.30]
03. Adam Ascending [0:01:09.36]
04. Shadwell Breaks In [0:01:16.63]
05. Bookshops on Fire [0:01:20.20]
06. Is That You? [0:01:52.53]
07. Four Horsemen [0:00:32.54]
08. Thundergun [0:00:56.61]
09. Adams Changed [0:01:01.19]
10. Horsemen to the Airfield [0:01:53.40]
11. On Your Bikes [0:01:08.71]
12. Requiem for a Bentley [0:01:53.25]
13. The Gathering [0:00:52.67]
14. Despatch the Horsemen [0:02:11.52]
15. Computers Down [0:01:00.37]
16. End of This Story [0:01:26.41]
17. Ineffable Plan [0:01:26.44]
18. They've Told His Father [0:01:28.53]
19. Another Place [0:01:23.10]
20. Life After Death [0:01:22.32]
21. Adams Bedroom [0:01:22.60]
22. Restoration [0:01:04.10]
23. Newt and Anathema Wake Up [0:01:35.68]
24. Hell and Holy Water [0:02:20.36]
25. Lawyer With a Box [0:02:38.33]
26. Shadwell and Tracy [0:01:00.24]
27. Together [0:01:15.13]
28. All's Well That Ends [0:01:22.06]
29. All Change [0:01:21.12]
30. A Nightingale Sang in Berkeley Square [0:03:00.21] Vocals by [artist]Tori Amos[/artist], written by [artist]Manning Sherwin[/artist] & [artist]Eric Maschwitz[/artist]

Exact Audio Copy V1.3 from 2. September 2016

EAC extraction logfile from 8. July 2019, 17:40

David Arnold / Good Omens - CD 1

Used drive : PLEXTOR CD-R PX-230A Adapter: 1 ID: 3

Read mode : Secure
Utilize accurate stream : Yes
Defeat audio cache : Yes
Make use of C2 pointers : No

Read offset correction : 738
Overread into Lead-In and Lead-Out : No
Fill up missing offset samples with silence : Yes
Delete leading and trailing silent blocks : No
Null samples used in CRC calculations : Yes
Used interface : Native Win32 interface for Win NT & 2000
Gap handling : Appended to previous track

Used output format : User Defined Encoder
Selected bitrate : 1024 kBit/s
Quality : High
Add ID3 tag : No
Command line compressor : C:\Program Files\Exact Audio Copy\Flac\flac.exe
Additional command line options : -6 -V -T "ARTIST=%artist%" -T "TITLE=%title%" -T "ALBUM=%albumtitle%" -T "DATE=%year%" -T "TRACKNUMBER=%tracknr%" -T "GENRE=%genre%" -T "COMMENT=%comment%" -T "ALBUMARTIST=%albuminterpret%" -T "COMPOSER=%composer%" -T "DISCNUMBER=%cdnumber%" -T "TOTALDISCS=%totalcds%" -T "TOTALTRACKS=%numtracks%" %source% -o %dest%


TOC of the extracted CD

Track | Start | Length | Start sector | End sector
––––––––––––––––––––––––––––-
1 | 0:00.00 | 2:11.41 | 0 | 9865
2 | 2:11.41 | 2:47.39 | 9866 | 22429
3 | 4:59.05 | 2:11.32 | 22430 | 32286
4 | 7:10.37 | 0:29.06 | 32287 | 34467
5 | 7:39.43 | 1:16.33 | 34468 | 40200
6 | 8:56.01 | 1:00.59 | 40201 | 44759
7 | 9:56.60 | 1:23.35 | 44760 | 51019
8 | 11:20.20 | 2:51.56 | 51020 | 63900
9 | 14:12.01 | 0:31.03 | 63901 | 66228
10 | 14:43.04 | 2:03.53 | 66229 | 75506
11 | 16:46.57 | 2:18.29 | 75507 | 85885
12 | 19:05.11 | 0:46.25 | 85886 | 89360
13 | 19:51.36 | 1:08.35 | 89361 | 94495
14 | 20:59.71 | 1:50.66 | 94496 | 102811
15 | 22:50.62 | 1:49.49 | 102812 | 111035
16 | 24:40.36 | 1:04.09 | 111036 | 115844
17 | 25:44.45 | 1:06.07 | 115845 | 120801
18 | 26:50.52 | 1:21.40 | 120802 | 126916
19 | 28:12.17 | 2:16.04 | 126917 | 137120
20 | 30:28.21 | 1:57.65 | 137121 | 145960
21 | 32:26.11 | 1:12.07 | 145961 | 151367
22 | 33:38.18 | 0:30.39 | 151368 | 153656
23 | 34:08.57 | 0:56.51 | 153657 | 157907
24 | 35:05.33 | 1:09.74 | 157908 | 163156
25 | 36:15.32 | 1:00.46 | 163157 | 167702
26 | 37:16.03 | 1:29.06 | 167703 | 174383
27 | 38:45.09 | 1:14.55 | 174384 | 179988
28 | 39:59.64 | 0:44.43 | 179989 | 183331
29 | 40:44.32 | 1:39.60 | 183332 | 190816
30 | 42:24.17 | 1:46.54 | 190817 | 198820
31 | 44:10.71 | 0:57.16 | 198821 | 203111
32 | 45:08.12 | 1:36.50 | 203112 | 210361


Track 1

Filename C:\Ripped by Filex\01 - Good Omens Opening Title.wav

Pre-gap length 0:00:02.00

Peak level 96.2 %
Extraction speed 5.7 X
Track quality 100.0 %
Test CRC 409604AA
Copy CRC 409604AA
Track not present in AccurateRip database
Copy OK

Track 2

Filename C:\Ripped by Filex\02 - Chattering Nuns.wav

Peak level 97.9 %
Extraction speed 6.5 X
Track quality 100.0 %
Test CRC F954BA93
Copy CRC F954BA93
Track not present in AccurateRip database
Copy OK

Track 3

Filename C:\Ripped by Filex\03 - Three Card Switch.wav

Peak level 91.1 %
Extraction speed 6.3 X
Track quality 100.0 %
Test CRC CDBB1ECF
Copy CRC CDBB1ECF
Track not present in AccurateRip database
Copy OK

Track 4

Filename C:\Ripped by Filex\04 - Warlock.wav

Peak level 75.9 %
Extraction speed 4.1 X
Track quality 100.0 %
Test CRC 6376D9CE
Copy CRC 6376D9CE
Track not present in AccurateRip database
Copy OK

Track 5

Filename C:\Ripped by Filex\05 - Adam.wav

Peak level 92.4 %
Extraction speed 5.5 X
Track quality 100.0 %
Test CRC 6BD3C459
Copy CRC 6BD3C459
Track not present in AccurateRip database
Copy OK

Track 6

Filename C:\Ripped by Filex\06 - Lullaby.wav

Peak level 60.2 %
Extraction speed 5.4 X
Track quality 100.0 %
Test CRC 9ED3BE33
Copy CRC 9ED3BE33
Track not present in AccurateRip database
Copy OK

Track 7

Filename C:\Ripped by Filex\07 - Hell Hound.wav

Peak level 93.6 %
Extraction speed 5.9 X
Track quality 100.0 %
Test CRC E0721009
Copy CRC E0721009
Track not present in AccurateRip database
Copy OK

Track 8

Filename C:\Ripped by Filex\08 - Wrong Boy.wav

Peak level 92.5 %
Extraction speed 6.6 X
Track quality 100.0 %
Test CRC 7285A89E
Copy CRC 7285A89E
Track not present in AccurateRip database
Copy OK

Track 9

Filename C:\Ripped by Filex\09 - We're Doomed.wav

Peak level 85.0 %
Extraction speed 4.5 X
Track quality 100.0 %
Test CRC 82A8C889
Copy CRC 82A8C889
Track not present in AccurateRip database
Copy OK

Track 10

Filename C:\Ripped by Filex\10 - End Titles - The Theme That Got Left in the Car.wav

Peak level 93.4 %
Extraction speed 7.0 X
Track quality 100.0 %
Test CRC F90DF3DB
Copy CRC F90DF3DB
Track not present in AccurateRip database
Copy OK

Track 11

Filename C:\Ripped by Filex\11 - Witch.wav

Peak level 94.0 %
Extraction speed 6.8 X
Track quality 100.0 %
Test CRC 1F649370
Copy CRC 1F649370
Track not present in AccurateRip database
Copy OK

Track 12

Filename C:\Ripped by Filex\12 - Newt.wav

Peak level 67.4 %
Extraction speed 6.2 X
Track quality 100.0 %
Test CRC 8E18600F
Copy CRC 8E18600F
Track not present in AccurateRip database
Copy OK

Track 13

Filename C:\Ripped by Filex\13 - Anathema.wav

Peak level 92.6 %
Extraction speed 6.5 X
Track quality 100.0 %
Test CRC 2321AE40
Copy CRC 2321AE40
Track not present in AccurateRip database
Copy OK

Track 14

Filename C:\Ripped by Filex\14 - The Them.wav

Peak level 91.5 %
Extraction speed 6.0 X
Track quality 99.9 %
Test CRC B43561F8
Copy CRC B43561F8
Track not present in AccurateRip database
Copy OK

Track 15

Filename C:\Ripped by Filex\15 - Anathema Meets Them.wav

Peak level 90.2 %
Extraction speed 7.6 X
Track quality 100.0 %
Test CRC 2E93129C
Copy CRC 2E93129C
Track not present in AccurateRip database
Copy OK

Track 16

Filename C:\Ripped by Filex\16 - Paintball.wav

Peak level 91.7 %
Extraction speed 6.3 X
Track quality 100.0 %
Test CRC 5217F954
Copy CRC 5217F954
Track not present in AccurateRip database
Copy OK

Track 17

Filename C:\Ripped by Filex\17 - Anathema Investigates.wav

Peak level 92.2 %
Extraction speed 4.7 X
Track quality 99.8 %
Test CRC 7D0804D1
Copy CRC 7D0804D1
Track not present in AccurateRip database
Copy OK

Track 18

Filename C:\Ripped by Filex\18 - Sleeping Adam.wav

Peak level 91.6 %
Extraction speed 7.3 X
Track quality 100.0 %
Test CRC 569667EB
Copy CRC 569667EB
Track not present in AccurateRip database
Copy OK

Track 19

Filename C:\Ripped by Filex\19 - I Should Cocoa.wav

Peak level 91.6 %
Extraction speed 8.0 X
Track quality 100.0 %
Test CRC 1BD2F644
Copy CRC 1BD2F644
Track not present in AccurateRip database
Copy OK

Track 20

Filename C:\Ripped by Filex\20 - Crucified.wav

Peak level 91.3 %
Extraction speed 6.3 X
Track quality 99.9 %
Test CRC 2BF9802A
Copy CRC 2BF9802A
Track not present in AccurateRip database
Copy OK

Track 21

Filename C:\Ripped by Filex\21 - The Black Knight.wav

Peak level 91.5 %
Extraction speed 7.6 X
Track quality 100.0 %
Test CRC 441FA345
Copy CRC 441FA345
Track not present in AccurateRip database
Copy OK

Track 22

Filename C:\Ripped by Filex\22 - The Globe.wav

Peak level 91.3 %
Extraction speed 3.3 X
Track quality 99.6 %
Test CRC 3D49F34D
Copy CRC 3D49F34D
Track not present in AccurateRip database
Copy OK

Track 23

Filename C:\Ripped by Filex\23 - St.James Park.wav

Peak level 91.5 %
Extraction speed 6.7 X
Track quality 100.0 %
Test CRC AE6F552C
Copy CRC AE6F552C
Track not present in AccurateRip database
Copy OK

Track 24

Filename C:\Ripped by Filex\24 - Holy Water.wav

Peak level 87.1 %
Extraction speed 7.6 X
Track quality 100.0 %
Test CRC 3C9CA608
Copy CRC 3C9CA608
Track not present in AccurateRip database
Copy OK

Track 25

Filename C:\Ripped by Filex\25 - Adam and Dog.wav

Peak level 91.5 %
Extraction speed 6.8 X
Track quality 100.0 %
Test CRC 4EB8F4A9
Copy CRC 4EB8F4A9
Track not present in AccurateRip database
Copy OK

Track 26

Filename C:\Ripped by Filex\26 - We're Not Killing Anybody.wav

Peak level 91.2 %
Extraction speed 8.5 X
Track quality 100.0 %
Test CRC 9D5AF518
Copy CRC 9D5AF518
Track not present in AccurateRip database
Copy OK

Track 27

Filename C:\Ripped by Filex\27 - Atlantis.wav

Peak level 91.9 %
Extraction speed 7.6 X
Track quality 100.0 %
Test CRC 2D2C215D
Copy CRC 2D2C215D
Track not present in AccurateRip database
Copy OK

Track 28

Filename C:\Ripped by Filex\28 - Gabriel.wav

Peak level 91.2 %
Extraction speed 6.4 X
Track quality 100.0 %
Test CRC 2E1006D8
Copy CRC 2E1006D8
Track not present in AccurateRip database
Copy OK

Track 29

Filename C:\Ripped by Filex\29 - Bad Angel Michael.wav

Peak level 91.2 %
Extraction speed 8.0 X
Track quality 100.0 %
Test CRC F6DC77EE
Copy CRC F6DC77EE
Track not present in AccurateRip database
Copy OK

Track 30

Filename C:\Ripped by Filex\30 - Delivery for Pollution.wav

Peak level 91.4 %
Extraction speed 8.1 X
Track quality 100.0 %
Test CRC F3B9BBB8
Copy CRC F3B9BBB8
Track not present in AccurateRip database
Copy OK

Track 31

Filename C:\Ripped by Filex\31 - Message for Mr Death.wav

Peak level 94.5 %
Extraction speed 7.1 X
Track quality 100.0 %
Test CRC D8C33583
Copy CRC D8C33583
Track not present in AccurateRip database
Copy OK

Track 32

Filename C:\Ripped by Filex\32 - Aliens!.wav

Peak level 91.2 %
Extraction speed 8.0 X
Track quality 100.0 %
Test CRC A53B7865
Copy CRC A53B7865
Track not present in AccurateRip database
Copy OK


None of the tracks are present in the AccurateRip database

No errors occurred

End of status report

–– CUETools DB Plugin V2.1.6

[CTDB TOCID: Ov8R5JywXSjsy7wMbJ0T8FLz52A-] disk not present in database
Submit result: Ov8R5JywXSjsy7wMbJ0T8FLz52A- has been uploaded


==== Log checksum 5118C3946C0176D87D27C8DFBE858187876EF310D131E6C389330D8F6F70C8EE ====


Exact Audio Copy V1.3 from 2. September 2016

EAC extraction logfile from 8. July 2019, 18:12

David Arnold / Good Omens - CD 2

Used drive : PLEXTOR CD-R PX-230A Adapter: 1 ID: 3

Read mode : Secure
Utilize accurate stream : Yes
Defeat audio cache : Yes
Make use of C2 pointers : No

Read offset correction : 738
Overread into Lead-In and Lead-Out : No
Fill up missing offset samples with silence : Yes
Delete leading and trailing silent blocks : No
Null samples used in CRC calculations : Yes
Used interface : Native Win32 interface for Win NT & 2000
Gap handling : Appended to previous track

Used output format : User Defined Encoder
Selected bitrate : 1024 kBit/s
Quality : High
Add ID3 tag : No
Command line compressor : C:\Program Files\Exact Audio Copy\Flac\flac.exe
Additional command line options : -6 -V -T "ARTIST=%artist%" -T "TITLE=%title%" -T "ALBUM=%albumtitle%" -T "DATE=%year%" -T "TRACKNUMBER=%tracknr%" -T "GENRE=%genre%" -T "COMMENT=%comment%" -T "ALBUMARTIST=%albuminterpret%" -T "COMPOSER=%composer%" -T "DISCNUMBER=%cdnumber%" -T "TOTALDISCS=%totalcds%" -T "TOTALTRACKS=%numtracks%" %source% -o %dest%


TOC of the extracted CD

Track | Start | Length | Start sector | End sector
––––––––––––––––––––––––––––-
1 | 0:00.00 | 0:36.25 | 0 | 2724
2 | 0:36.25 | 0:37.30 | 2725 | 5529
3 | 1:13.55 | 1:09.36 | 5530 | 10740
4 | 2:23.16 | 1:16.63 | 10741 | 16503
5 | 3:40.04 | 1:20.20 | 16504 | 22523
6 | 5:00.24 | 1:52.53 | 22524 | 30976
7 | 6:53.02 | 0:32.54 | 30977 | 33430
8 | 7:25.56 | 0:56.61 | 33431 | 37691
9 | 8:22.42 | 1:01.19 | 37692 | 42285
10 | 9:23.61 | 1:53.40 | 42286 | 50800
11 | 11:17.26 | 1:08.71 | 50801 | 55971
12 | 12:26.22 | 1:53.25 | 55972 | 64471
13 | 14:19.47 | 0:52.67 | 64472 | 68438
14 | 15:12.39 | 2:11.52 | 68439 | 78315
15 | 17:24.16 | 1:00.37 | 78316 | 82852
16 | 18:24.53 | 1:26.41 | 82853 | 89343
17 | 19:51.19 | 1:26.44 | 89344 | 95837
18 | 21:17.63 | 1:28.53 | 95838 | 102490
19 | 22:46.41 | 1:23.10 | 102491 | 108725
20 | 24:09.51 | 1:22.32 | 108726 | 114907
21 | 25:32.08 | 1:22.60 | 114908 | 121117
22 | 26:54.68 | 1:04.10 | 121118 | 125927
23 | 27:59.03 | 1:35.68 | 125928 | 133120
24 | 29:34.71 | 2:20.36 | 133121 | 143656
25 | 31:55.32 | 2:38.33 | 143657 | 155539
26 | 34:33.65 | 1:00.24 | 155540 | 160063
27 | 35:34.14 | 1:15.13 | 160064 | 165701
28 | 36:49.27 | 1:22.06 | 165702 | 171857
29 | 38:11.33 | 1:21.12 | 171858 | 177944
30 | 39:32.45 | 3:00.21 | 177945 | 191465


Track 1

Filename C:\Ripped by Filex\01 - Ambassador Arrives.wav

Pre-gap length 0:00:02.00

Peak level 91.4 %
Extraction speed 2.6 X
Track quality 100.0 %
Test CRC 31F2D137
Copy CRC 31F2D137
Track not present in AccurateRip database
Copy OK

Track 2

Filename C:\Ripped by Filex\02 - Ansaphone.wav

Peak level 75.2 %
Extraction speed 3.1 X
Track quality 100.0 %
Test CRC A5B781B3
Copy CRC A5B781B3
Track not present in AccurateRip database
Copy OK

Track 3

Filename C:\Ripped by Filex\03 - Adam Ascending.wav

Peak level 91.7 %
Extraction speed 4.0 X
Track quality 100.0 %
Test CRC DDD26455
Copy CRC DDD26455
Track not present in AccurateRip database
Copy OK

Track 4

Filename C:\Ripped by Filex\04 - Shadwell Breaks In.wav

Peak level 92.5 %
Extraction speed 4.1 X
Track quality 100.0 %
Test CRC 5C982E57
Copy CRC 5C982E57
Track not present in AccurateRip database
Copy OK

Track 5

Filename C:\Ripped by Filex\05 - Bookshops On Fire.wav

Peak level 91.4 %
Extraction speed 3.8 X
Track quality 100.0 %
Test CRC 101F4807
Copy CRC 101F4807
Track not present in AccurateRip database
Copy OK

Track 6

Filename C:\Ripped by Filex\06 - Is That You.wav

Peak level 92.0 %
Extraction speed 4.3 X
Track quality 100.0 %
Test CRC 41ED75A8
Copy CRC 41ED75A8
Track not present in AccurateRip database
Copy OK

Track 7

Filename C:\Ripped by Filex\07 - Four Horsemen.wav

Peak level 93.7 %
Extraction speed 2.9 X
Track quality 100.0 %
Test CRC 071344C3
Copy CRC 071344C3
Track not present in AccurateRip database
Copy OK

Track 8

Filename C:\Ripped by Filex\08 - Thundergun.wav

Peak level 91.5 %
Extraction speed 3.7 X
Track quality 100.0 %
Test CRC 0972244A
Copy CRC 0972244A
Track not present in AccurateRip database
Copy OK

Track 9

Filename C:\Ripped by Filex\09 - Adams Changed.wav

Peak level 91.2 %
Extraction speed 3.2 X
Track quality 100.0 %
Test CRC DE3747B5
Copy CRC DE3747B5
Track not present in AccurateRip database
Copy OK

Track 10

Filename C:\Ripped by Filex\10 - Horsemen to the Airfield.wav

Peak level 93.4 %
Extraction speed 3.8 X
Track quality 99.9 %
Test CRC 962026BF
Copy CRC 962026BF
Track not present in AccurateRip database
Copy OK

Track 11

Filename C:\Ripped by Filex\11 - On Your Bikes.wav

Peak level 91.7 %
Extraction speed 3.9 X
Track quality 100.0 %
Test CRC 0C3B8E75
Copy CRC 0C3B8E75
Track not present in AccurateRip database
Copy OK

Track 12

Filename C:\Ripped by Filex\12 - Requiem for a Bentley.wav

Peak level 91.3 %
Extraction speed 4.2 X
Track quality 100.0 %
Test CRC AAFB7A3B
Copy CRC AAFB7A3B
Track not present in AccurateRip database
Copy OK

Track 13

Filename C:\Ripped by Filex\13 - The Gathering.wav

Peak level 91.4 %
Extraction speed 3.5 X
Track quality 100.0 %
Test CRC 2439D042
Copy CRC 2439D042
Track not present in AccurateRip database
Copy OK

Track 14

Filename C:\Ripped by Filex\14 - Despatch the Horsemen.wav

Peak level 94.5 %
Extraction speed 3.8 X
Track quality 100.0 %
Test CRC 0C9AAE99
Copy CRC 0C9AAE99
Track not present in AccurateRip database
Copy OK

Track 15

Filename C:\Ripped by Filex\15 - Computers Down.wav

Peak level 91.5 %
Extraction speed 3.7 X
Track quality 100.0 %
Test CRC 136126F2
Copy CRC 136126F2
Track not present in AccurateRip database
Copy OK

Track 16

Filename C:\Ripped by Filex\16 - End of This Story.wav

Peak level 91.2 %
Extraction speed 4.2 X
Track quality 100.0 %
Test CRC A5734757
Copy CRC A5734757
Track not present in AccurateRip database
Copy OK

Track 17

Filename C:\Ripped by Filex\17 - Ineffable Plan.wav

Peak level 76.0 %
Extraction speed 3.4 X
Track quality 100.0 %
Test CRC 2E8AE605
Copy CRC 2E8AE605
Track not present in AccurateRip database
Copy OK

Track 18

Filename C:\Ripped by Filex\18 - They've Told His Father.wav

Peak level 91.5 %
Extraction speed 4.2 X
Track quality 100.0 %
Test CRC 33A0A666
Copy CRC 33A0A666
Track not present in AccurateRip database
Copy OK

Track 19

Filename C:\Ripped by Filex\19 - Another Place.wav

Peak level 93.3 %
Extraction speed 3.5 X
Track quality 100.0 %
Test CRC CED74384
Copy CRC CED74384
Track not present in AccurateRip database
Copy OK

Track 20

Filename C:\Ripped by Filex\20 - Life After Death.wav

Peak level 82.2 %
Extraction speed 4.1 X
Track quality 100.0 %
Test CRC E8D78C73
Copy CRC E8D78C73
Track not present in AccurateRip database
Copy OK

Track 21

Filename C:\Ripped by Filex\21 - Adams Bedroom.wav

Peak level 91.3 %
Extraction speed 3.9 X
Track quality 100.0 %
Test CRC 2DEB60CB
Copy CRC 2DEB60CB
Track not present in AccurateRip database
Copy OK

Track 22

Filename C:\Ripped by Filex\22 - Restoration.wav

Peak level 91.3 %
Extraction speed 3.2 X
Track quality 100.0 %
Test CRC D8E1E39C
Copy CRC D8E1E39C
Track not present in AccurateRip database
Copy OK

Track 23

Filename C:\Ripped by Filex\23 - Newt and Anathema Wake Up.wav

Peak level 91.2 %
Extraction speed 3.4 X
Track quality 99.8 %
Test CRC 132D3DD2
Copy CRC 132D3DD2
Track not present in AccurateRip database
Copy OK

Track 24

Filename C:\Ripped by Filex\24 - Hell and Holy Water.wav

Peak level 91.6 %
Extraction speed 3.8 X
Track quality 100.0 %
Test CRC DB8633EE
Copy CRC DB8633EE
Track not present in AccurateRip database
Copy OK

Track 25

Filename C:\Ripped by Filex\25 - Lawyer With a Box.wav

Peak level 86.4 %
Extraction speed 4.9 X
Track quality 100.0 %
Test CRC BC05DF50
Copy CRC BC05DF50
Track not present in AccurateRip database
Copy OK

Track 26

Filename C:\Ripped by Filex\26 - Shadwell and Tracy.wav

Peak level 91.2 %
Extraction speed 2.8 X
Track quality 100.0 %
Test CRC 49F671DF
Copy CRC 49F671DF
Track not present in AccurateRip database
Copy OK

Track 27

Filename C:\Ripped by Filex\27 - Together.wav

Peak level 91.2 %
Extraction speed 4.0 X
Track quality 100.0 %
Test CRC F0CD219B
Copy CRC F0CD219B
Track not present in AccurateRip database
Copy OK

Track 28

Filename C:\Ripped by Filex\28 - All's Well That Ends.wav

Peak level 86.5 %
Extraction speed 3.9 X
Track quality 100.0 %
Test CRC 3BC5DF8C
Copy CRC 3BC5DF8C
Track not present in AccurateRip database
Copy OK

Track 29

Filename C:\Ripped by Filex\29 - All Change.wav

Peak level 82.4 %
Extraction speed 3.0 X
Track quality 100.0 %
Test CRC 4119BE30
Copy CRC 4119BE30
Track not present in AccurateRip database
Copy OK

Track 30

Filename C:\Ripped by Filex\30 - A Nightingale Sang in Berkeley Square , Vocals by Tori Amos.wav

Peak level 99.8 %
Extraction speed 3.9 X
Track quality 99.9 %
Test CRC 60855650
Copy CRC 60855650
Track not present in AccurateRip database
Copy OK


None of the tracks are present in the AccurateRip database

No errors occurred

End of status report

–– CUETools DB Plugin V2.1.6

[CTDB TOCID: 3xKrSEAm9HfgDrCn0Z_LJhKXprc-] disk not present in database
Submit result: 3xKrSEAm9HfgDrCn0Z_LJhKXprc- has been uploaded


==== Log checksum 753EF65FB7448145B0BE7787DBBFAA4580F7070C68ACD367C769C2A61533A4AC ====