Subcategories

DASHIELL HEDAYAT (MELMOTH)

Posted By: Poor_
DASHIELL HEDAYAT (MELMOTH)

DASHIELL HEDAYAT (MELMOTH)

DASHIELL HEDAYAT with GONG - Obsolete (1971)
Avantgarde | EAC+log+cue+flac+scans | 230 MB
&
MELMOTH (DASHIELL HEDAYAT) - La devanture des ivresses (1969)
Avantgarde | EAC+log+cue+flac+scans | 220 MB
Two Masterpieces !


Dashiell Hedayat aka Jack-Alain Léger aka Melmoth is a writer and translated
in french books by Bob Dylan (Tarantula), J.R.R. Tolkien (Tom Bombadil) and Leonard Cohen.
He recorded two albums "La Devanture des Ivresses" as Melmoth in 1969 and
Obsolete as Dashiell Hedayat in 1971 with strong involvement of Gong and William S. Burroughs.

Obsolete :
1. Chrysler (6:40)
2. Fille de l'Ombre (2:18)
3. Long Song for Zelda (7:45)
4. Cielo Drive (21:08)

Exact Audio Copy V0.99 prebeta 3 from 28. July 2007

EAC extraction logfile from 24. April 2009, 16:53

Dashiell Hedayat (with Gong) / Obsolete

Used drive : PIONEER DVD-RW DVR-112D Adapter: 0 ID: 0

Read mode : Secure
Utilize accurate stream : Yes
Defeat audio cache : Yes
Make use of C2 pointers : No

Read offset correction : 48
Overread into Lead-In and Lead-Out : No
Fill up missing offset samples with silence : Yes
Delete leading and trailing silent blocks : No
Null samples used in CRC calculations : Yes
Used interface : Native Win32 interface for Win NT & 2000
Gap handling : Appended to previous track

Used output format : User Defined Encoder
Selected bitrate : 896 kBit/s
Quality : High
Add ID3 tag : No
Command line compressor : C:\Program Files\Exact Audio Copy\FLAC\FLAC.EXE
Additional command line options : -V -8 -T "artist=%a" -T "title=%t" -T "album=%g" -T "date=%y" -T "tracknumber=%n" -T "genre=%m" %s


TOC of the extracted CD

Track | Start | Length | Start sector | End sector
––––––––––––––––––––––––––––-
1 | 0:00.00 | 6:40.02 | 0 | 30001
2 | 6:40.02 | 2:18.01 | 30002 | 40352
3 | 8:58.03 | 7:45.01 | 40353 | 75228
4 | 16:43.04 | 21:08.63 | 75229 | 170391


Track 1

Filename E:\Z-POST\GONG with DASHIELL HEDAYAT - Obsolete (1971) (EAC,log,cue,flac,scans)\01 - Chrysler.wav

Pre-gap length 0:00:02.00

Peak level 99.8 %
Track quality 100.0 %
Test CRC 2A94544A
Copy CRC 2A94544A
Copy OK

Track 2

Filename E:\Z-POST\GONG with DASHIELL HEDAYAT - Obsolete (1971) (EAC,log,cue,flac,scans)\02 - Fille de l'Ombre.wav

Peak level 89.9 %
Track quality 100.0 %
Test CRC FF0A2A32
Copy CRC FF0A2A32
Copy OK

Track 3

Filename E:\Z-POST\GONG with DASHIELL HEDAYAT - Obsolete (1971) (EAC,log,cue,flac,scans)\03 - Long Song for Zelda.wav

Peak level 99.7 %
Track quality 100.0 %
Test CRC 95EC6797
Copy CRC 95EC6797
Copy OK

Track 4

Filename E:\Z-POST\GONG with DASHIELL HEDAYAT - Obsolete (1971) (EAC,log,cue,flac,scans)\04 - Cielo Drive.wav

Peak level 99.8 %
Track quality 99.9 %
Test CRC E077EE44
Copy CRC E077EE44
Copy OK

No errors occurred

End of status report



La devanture des ivresses
1. Le Voyage D'été (8:20)
2. Vous Direz Que Je Suis Tombé (6:07)
3. La Mort Multicolore (4:13)
4. Papier A Fleur (5:55)
5. Le Blues Interminable de la Préposée (5:48)
6. Mary-Flora Belle (4:06)
7. Le Voyage D'Hiver (3:29)

Exact Audio Copy V0.99 prebeta 4 from 23. January 2008

EAC extraction logfile from 6. January 2009, 20:34

Melmoth (Dashiell Hedayat) / La Devanture des Ivresses

Used drive : HL-DT-STDVD-RAM GH22NP20 Adapter: 1 ID: 0

Read mode : Secure
Utilize accurate stream : Yes
Defeat audio cache : Yes
Make use of C2 pointers : No

Read offset correction : 102
Overread into Lead-In and Lead-Out : No
Fill up missing offset samples with silence : Yes
Delete leading and trailing silent blocks : No
Null samples used in CRC calculations : Yes
Used interface : Native Win32 interface for Win NT & 2000
Gap handling : Appended to previous track

Used output format : User Defined Encoder
Selected bitrate : 128 kBit/s
Quality : High
Add ID3 tag : No
Command line compressor : C:\AplyRAF\Audio\EAC\flac.exe
Additional command line options : -5 -V -T "ARTIST=%a" -T "TITLE=%t" -T "ALBUM=%g" -T "DATE=%y" -T "TRACKNUMBER=%n" -T "GENRE=%m" -T "COMMENT=EAC Flac 1.1.2 -5" %s


TOC of the extracted CD

Track | Start | Length | Start sector | End sector
––––––––––––––––––––––––––––-
1 | 0:00.32 | 8:20.25 | 32 | 37556
2 | 8:20.57 | 6:07.30 | 37557 | 65111
3 | 14:28.12 | 4:12.50 | 65112 | 84061
4 | 18:40.62 | 5:55.65 | 84062 | 110751
5 | 24:36.52 | 5:47.73 | 110752 | 136849
6 | 30:24.50 | 4:08.30 | 136850 | 155479
7 | 34:33.05 | 3:29.27 | 155480 | 171181


Track 1

Filename C:\WAV\Ripeos\Melmoth (Dashiell Hedayat) - La Devanture des Ivresses (1969) [FLAC]\01 - Le voyage d'été.wav

Pre-gap length 0:00:02.42

Peak level 99.9 %
Track quality 100.0 %
Test CRC 9EDC9572
Copy CRC 9EDC9572
Copy OK

Track 2

Filename C:\WAV\Ripeos\Melmoth (Dashiell Hedayat) - La Devanture des Ivresses (1969) [FLAC]\02 - Vous direz que je suis tombé.wav

Peak level 99.1 %
Track quality 100.0 %
Test CRC 60B40F15
Copy CRC 60B40F15
Copy OK

Track 3

Filename C:\WAV\Ripeos\Melmoth (Dashiell Hedayat) - La Devanture des Ivresses (1969) [FLAC]\03 - La mort multicolore.wav

Peak level 99.6 %
Track quality 99.9 %
Test CRC 0F2632E6
Copy CRC 0F2632E6
Copy OK

Track 4

Filename C:\WAV\Ripeos\Melmoth (Dashiell Hedayat) - La Devanture des Ivresses (1969) [FLAC]\04 - Papier ŕ fleur.wav

Peak level 100.0 %
Track quality 100.0 %
Test CRC 85291119
Copy CRC 85291119
Copy OK

Track 5

Filename C:\WAV\Ripeos\Melmoth (Dashiell Hedayat) - La Devanture des Ivresses (1969) [FLAC]\05 - Le blues interminable de la préposée au chalet d'aisance du bureau d'émigration.wav

Peak level 99.9 %
Track quality 100.0 %
Test CRC 479F9E21
Copy CRC 479F9E21
Copy OK

Track 6

Filename C:\WAV\Ripeos\Melmoth (Dashiell Hedayat) - La Devanture des Ivresses (1969) [FLAC]\06 - Mary Flora Bell.wav

Peak level 100.0 %
Track quality 99.9 %
Test CRC 0448A539
Copy CRC 0448A539
Copy OK

Track 7

Filename C:\WAV\Ripeos\Melmoth (Dashiell Hedayat) - La Devanture des Ivresses (1969) [FLAC]\07 - Le voyage d'hiver.wav

Peak level 99.9 %
Track quality 100.0 %
Test CRC 4E5A5B44
Copy CRC 4E5A5B44
Copy OK

No errors occurred

End of status report



Cheers
Poor