Subcategories
Tags
Language
Tags

DJ Biscuit & Doc Brown - New Magic In A Dusty World (2003) {Spin Science} **[RE-UP]**

Posted By: TestTickles
DJ Biscuit & Doc Brown - New Magic In A Dusty World (2003) {Spin Science} **[RE-UP]**

DJ Biscuit & Doc Brown - New Magic In A Dusty World (2003) {Spin Science}
EAC Rip | FLAC with CUE and log | scans | 403 mb
MP3 CBR 320kbps | RAR | 150 mb
Genre: hip-hop, rap

New Magic In A Dusty World is the 2003 collaborative album by DJ Biscuit & Doc Brown. This was released by Spin Science.

DJ Biscuit & Doc Brown - New Magic In A Dusty World (2003) {Spin Science} **[RE-UP]**

1. Prelude To A Mix
2. Bicycles, Flutes et Tu
3. Sing Along
4. Funky Oreo 2000
5. Hit The Brakes (Part 1)
6. Hip-Hop Music (Smoking Ambience Mix)
7. Surprize Package
8. Gary & Wyatt Hit The City
9. How We Break It Down
10. Scenario (Dirty Chemistry Mix)
11. Another Side
12. Look Brad
13. Your Girl (Can't Help It Mix)
14. Nothing Can Stop Us Not (Get Strong Mix)
15. A Special Report Circa 1993
16. Dr. Livingston
17. Bedroom Rock (Too Cold To Cut Mix)
18. Legs
19. Who Is It? (Mad Made Magic Mix)
20. Diggin' In (Call Me Irwin Mix)
21. "I've Started To Make A Tape"
22. Fools Gold (First In Flight Mix)
23. Boy That Turned Him On Alright (Hidden Entrance Mix)
24. Life's Angles (Biscuit Gets Busy)
25. Hit The Brakes (Part 2)
26. (Untitled)
27. Power Of Love (Tuesday Morning Edit)
28. Duckshot (Nu Energy Mix)
29. Lets Just Close Our Eyes (Rainy Day Mix)
30. Hit The Brakes (Part 3)
31. Here We Go!
32. Glamorous Life (Already Broken Mix
33. Hit The Brakes (Part 4)
34. Live At Dominoes (Bells And Whistles Mix)
35. Friendly End

Engineered, mixed & produced by G.S. Nesbitt & G.E. Wendal

Exact Audio Copy V1.1 from 23. June 2015

EAC extraction logfile from 29. December 2016, 9:25

DJ Biscuit & Doc Brown / New Magic In A Dusty World

Used drive : TEAC DVD-ROM DV-28SW Adapter: 1 ID: 0

Read mode : Secure
Utilize accurate stream : Yes
Defeat audio cache : Yes
Make use of C2 pointers : No

Read offset correction : 6
Overread into Lead-In and Lead-Out : No
Fill up missing offset samples with silence : Yes
Delete leading and trailing silent blocks : No
Null samples used in CRC calculations : Yes
Used interface : Native Win32 interface for Win NT & 2000
Gap handling : Appended to previous track

Used output format : Internal WAV Routines
Sample format : 44.100 Hz; 16 Bit; Stereo


TOC of the extracted CD

Track | Start | Length | Start sector | End sector
––––––––––––––––––––––––––––-
1 | 0:00.00 | 2:02.35 | 0 | 9184
2 | 2:02.35 | 3:07.49 | 9185 | 23258
3 | 5:10.09 | 1:15.06 | 23259 | 28889
4 | 6:25.15 | 1:15.07 | 28890 | 34521
5 | 7:40.22 | 1:43.15 | 34522 | 42261
6 | 9:23.37 | 2:14.14 | 42262 | 52325
7 | 11:37.51 | 0:47.05 | 52326 | 55855
8 | 12:24.56 | 2:02.18 | 55856 | 65023
9 | 14:26.74 | 3:13.12 | 65024 | 79510
10 | 17:40.11 | 3:57.51 | 79511 | 97336
11 | 21:37.62 | 0:39.23 | 97337 | 100284
12 | 22:17.10 | 2:00.09 | 100285 | 109293
13 | 24:17.19 | 3:27.18 | 109294 | 124836
14 | 27:44.37 | 1:50.61 | 124837 | 133147
15 | 29:35.23 | 1:50.65 | 133148 | 141462
16 | 31:26.13 | 1:13.45 | 141463 | 146982
17 | 32:39.58 | 0:36.36 | 146983 | 149718
18 | 33:16.19 | 0:52.08 | 149719 | 153626
19 | 34:08.27 | 1:48.29 | 153627 | 161755
20 | 35:56.56 | 1:34.39 | 161756 | 168844
21 | 37:31.20 | 0:45.65 | 168845 | 172284
22 | 38:17.10 | 1:24.64 | 172285 | 178648
23 | 39:41.74 | 1:41.60 | 178649 | 186283
24 | 41:23.59 | 3:15.12 | 186284 | 200920
25 | 44:38.71 | 1:41.22 | 200921 | 208517
26 | 46:20.18 | 1:33.74 | 208518 | 215566
27 | 47:54.17 | 1:16.68 | 215567 | 221334
28 | 49:11.10 | 2:26.55 | 221335 | 232339
29 | 51:37.65 | 2:10.34 | 232340 | 242123
30 | 53:48.24 | 0:38.28 | 242124 | 245001
31 | 54:26.52 | 1:01.30 | 245002 | 249606
32 | 55:28.07 | 2:14.09 | 249607 | 259665
33 | 57:42.16 | 1:47.21 | 259666 | 267711
34 | 59:29.37 | 3:18.41 | 267712 | 282602
35 | 62:48.03 | 2:34.60 | 282603 | 294212


Track 1

Filename C:\My Documents\My FLAC\DJ Biscuit & Doc Brown - New Magic In A Dusty World (2003) [FLAC] {Spin Science}\01 - Prelude To A Mix.wav

Pre-gap length 0:00:02.00

Peak level 97.5 %
Extraction speed 1.7 X
Track quality 99.9 %
Test CRC 0436B184
Copy CRC 0436B184
Track not present in AccurateRip database
Copy OK

Track 2

Filename C:\My Documents\My FLAC\DJ Biscuit & Doc Brown - New Magic In A Dusty World (2003) [FLAC] {Spin Science}\02 - Bicycles, Flutes et Tu.wav

Peak level 93.5 %
Extraction speed 2.8 X
Track quality 100.0 %
Test CRC 1E696A6C
Copy CRC 1E696A6C
Track not present in AccurateRip database
Copy OK

Track 3

Filename C:\My Documents\My FLAC\DJ Biscuit & Doc Brown - New Magic In A Dusty World (2003) [FLAC] {Spin Science}\03 - Sing Along.wav

Peak level 85.3 %
Extraction speed 2.3 X
Track quality 100.0 %
Test CRC 8D0604A4
Copy CRC 8D0604A4
Track not present in AccurateRip database
Copy OK

Track 4

Filename C:\My Documents\My FLAC\DJ Biscuit & Doc Brown - New Magic In A Dusty World (2003) [FLAC] {Spin Science}\04 - Funky Oreo 2000.wav

Peak level 100.0 %
Extraction speed 2.4 X
Track quality 100.0 %
Test CRC 6D50B5CA
Copy CRC 6D50B5CA
Track not present in AccurateRip database
Copy OK

Track 5

Filename C:\My Documents\My FLAC\DJ Biscuit & Doc Brown - New Magic In A Dusty World (2003) [FLAC] {Spin Science}\05 - Hit The Brakes (Part 1).wav

Peak level 97.3 %
Extraction speed 2.8 X
Track quality 100.0 %
Test CRC A744C429
Copy CRC A744C429
Track not present in AccurateRip database
Copy OK

Track 6

Filename C:\My Documents\My FLAC\DJ Biscuit & Doc Brown - New Magic In A Dusty World (2003) [FLAC] {Spin Science}\06 - Hip-Hop Music (Smoking Ambience Mix).wav

Peak level 98.4 %
Extraction speed 2.4 X
Track quality 100.0 %
Test CRC 557F86B1
Copy CRC 557F86B1
Track not present in AccurateRip database
Copy OK

Track 7

Filename C:\My Documents\My FLAC\DJ Biscuit & Doc Brown - New Magic In A Dusty World (2003) [FLAC] {Spin Science}\07 - Sirprize Package.wav

Peak level 76.9 %
Extraction speed 1.7 X
Track quality 100.0 %
Test CRC BA95990E
Copy CRC BA95990E
Track not present in AccurateRip database
Copy OK

Track 8

Filename C:\My Documents\My FLAC\DJ Biscuit & Doc Brown - New Magic In A Dusty World (2003) [FLAC] {Spin Science}\08 - Gary & Wyatt Hit The City.wav

Peak level 94.0 %
Extraction speed 2.9 X
Track quality 100.0 %
Test CRC 18F049C4
Copy CRC 18F049C4
Track not present in AccurateRip database
Copy OK

Track 9

Filename C:\My Documents\My FLAC\DJ Biscuit & Doc Brown - New Magic In A Dusty World (2003) [FLAC] {Spin Science}\09 - How We Break It Down.wav

Peak level 96.7 %
Extraction speed 3.5 X
Track quality 100.0 %
Test CRC 9C0C8338
Copy CRC 9C0C8338
Track not present in AccurateRip database
Copy OK

Track 10

Filename C:\My Documents\My FLAC\DJ Biscuit & Doc Brown - New Magic In A Dusty World (2003) [FLAC] {Spin Science}\10 - Scenario (Dirty Chemistry Mix).wav

Peak level 94.1 %
Extraction speed 3.1 X
Track quality 99.9 %
Test CRC A50EF2CA
Copy CRC A50EF2CA
Track not present in AccurateRip database
Copy OK

Track 11

Filename C:\My Documents\My FLAC\DJ Biscuit & Doc Brown - New Magic In A Dusty World (2003) [FLAC] {Spin Science}\11 - Another Side.wav

Peak level 53.8 %
Extraction speed 2.2 X
Track quality 100.0 %
Test CRC FD7A2553
Copy CRC FD7A2553
Track not present in AccurateRip database
Copy OK

Track 12

Filename C:\My Documents\My FLAC\DJ Biscuit & Doc Brown - New Magic In A Dusty World (2003) [FLAC] {Spin Science}\12 - Look Brad….wav

Peak level 59.7 %
Extraction speed 3.3 X
Track quality 100.0 %
Test CRC 45EF54BC
Copy CRC 45EF54BC
Track not present in AccurateRip database
Copy OK

Track 13

Filename C:\My Documents\My FLAC\DJ Biscuit & Doc Brown - New Magic In A Dusty World (2003) [FLAC] {Spin Science}\13 - Your Girl (Can't Help It Mix).wav

Peak level 72.7 %
Extraction speed 3.8 X
Track quality 100.0 %
Test CRC 509A4D07
Copy CRC 509A4D07
Track not present in AccurateRip database
Copy OK

Track 14

Filename C:\My Documents\My FLAC\DJ Biscuit & Doc Brown - New Magic In A Dusty World (2003) [FLAC] {Spin Science}\14 - Nothing Can Stop Us Now (Get Strong Mix).wav

Peak level 96.0 %
Extraction speed 3.2 X
Track quality 100.0 %
Test CRC 975D2CBC
Copy CRC 975D2CBC
Track not present in AccurateRip database
Copy OK

Track 15

Filename C:\My Documents\My FLAC\DJ Biscuit & Doc Brown - New Magic In A Dusty World (2003) [FLAC] {Spin Science}\15 - A Special Report Circa 1993.wav

Peak level 91.2 %
Extraction speed 2.7 X
Track quality 99.9 %
Test CRC B73FA481
Copy CRC B73FA481
Track not present in AccurateRip database
Copy OK

Track 16

Filename C:\My Documents\My FLAC\DJ Biscuit & Doc Brown - New Magic In A Dusty World (2003) [FLAC] {Spin Science}\16 - Dr. Livingston.wav

Peak level 97.8 %
Extraction speed 3.4 X
Track quality 100.0 %
Test CRC 65621A3E
Copy CRC 65621A3E
Track not present in AccurateRip database
Copy OK

Track 17

Filename C:\My Documents\My FLAC\DJ Biscuit & Doc Brown - New Magic In A Dusty World (2003) [FLAC] {Spin Science}\17 - Bedroom Rock (Too Cold To Cut Mix).wav

Peak level 99.5 %
Extraction speed 1.4 X
Track quality 99.7 %
Test CRC F965BE65
Copy CRC F965BE65
Track not present in AccurateRip database
Copy OK

Track 18

Filename C:\My Documents\My FLAC\DJ Biscuit & Doc Brown - New Magic In A Dusty World (2003) [FLAC] {Spin Science}\18 - Legs.wav

Peak level 89.9 %
Extraction speed 1.9 X
Track quality 99.7 %
Test CRC 083074FA
Copy CRC 083074FA
Track not present in AccurateRip database
Copy OK

Track 19

Filename C:\My Documents\My FLAC\DJ Biscuit & Doc Brown - New Magic In A Dusty World (2003) [FLAC] {Spin Science}\19 - Who Is It (Man Made Magic Mix).wav

Peak level 100.0 %
Extraction speed 3.6 X
Track quality 100.0 %
Test CRC DF92444A
Copy CRC DF92444A
Track not present in AccurateRip database
Copy OK

Track 20

Filename C:\My Documents\My FLAC\DJ Biscuit & Doc Brown - New Magic In A Dusty World (2003) [FLAC] {Spin Science}\20 - Diggin' In (Call Me Irwin Mix).wav

Peak level 95.4 %
Extraction speed 3.7 X
Track quality 100.0 %
Test CRC B9EFAE33
Copy CRC B9EFAE33
Track not present in AccurateRip database
Copy OK

Track 21

Filename C:\My Documents\My FLAC\DJ Biscuit & Doc Brown - New Magic In A Dusty World (2003) [FLAC] {Spin Science}\21 - ''I've Started To Make A Tape…''.wav

Peak level 65.1 %
Extraction speed 3.0 X
Track quality 100.0 %
Test CRC 23B3D78F
Copy CRC 23B3D78F
Track not present in AccurateRip database
Copy OK

Track 22

Filename C:\My Documents\My FLAC\DJ Biscuit & Doc Brown - New Magic In A Dusty World (2003) [FLAC] {Spin Science}\22 - Fools Good (First In Flight Mix).wav

Peak level 81.7 %
Extraction speed 1.5 X
Track quality 100.0 %
Test CRC 35D30BD7
Copy CRC 35D30BD7
Track not present in AccurateRip database
Copy OK

Track 23

Filename C:\My Documents\My FLAC\DJ Biscuit & Doc Brown - New Magic In A Dusty World (2003) [FLAC] {Spin Science}\23 - Boy That Turned Him On Alright (Hidden Entrance Mix).wav

Peak level 99.4 %
Extraction speed 3.0 X
Track quality 100.0 %
Test CRC 7A0662E2
Copy CRC 7A0662E2
Track not present in AccurateRip database
Copy OK

Track 24

Filename C:\My Documents\My FLAC\DJ Biscuit & Doc Brown - New Magic In A Dusty World (2003) [FLAC] {Spin Science}\24 - Life's Angles (Biscuit Gets Busy).wav

Peak level 100.0 %
Extraction speed 2.4 X
Track quality 100.0 %
Test CRC DD69EA5C
Copy CRC DD69EA5C
Track not present in AccurateRip database
Copy OK

Track 25

Filename C:\My Documents\My FLAC\DJ Biscuit & Doc Brown - New Magic In A Dusty World (2003) [FLAC] {Spin Science}\25 - Hit The Brakes (Part 2).wav

Peak level 100.0 %
Extraction speed 3.3 X
Track quality 100.0 %
Test CRC 5E2ECEED
Copy CRC 5E2ECEED
Track not present in AccurateRip database
Copy OK

Track 26

Filename C:\My Documents\My FLAC\DJ Biscuit & Doc Brown - New Magic In A Dusty World (2003) [FLAC] {Spin Science}\26 - (Untitled).wav

Peak level 68.6 %
Extraction speed 2.8 X
Track quality 100.0 %
Test CRC CB573B9E
Copy CRC CB573B9E
Track not present in AccurateRip database
Copy OK

Track 27

Filename C:\My Documents\My FLAC\DJ Biscuit & Doc Brown - New Magic In A Dusty World (2003) [FLAC] {Spin Science}\27 - Power Of Love (Tuesday Morning Edit).wav

Peak level 99.8 %
Extraction speed 2.7 X
Track quality 100.0 %
Test CRC 6E6A4A75
Copy CRC 6E6A4A75
Track not present in AccurateRip database
Copy OK

Track 28

Filename C:\My Documents\My FLAC\DJ Biscuit & Doc Brown - New Magic In A Dusty World (2003) [FLAC] {Spin Science}\28 - Duckshot (Nu Energy Mix).wav

Peak level 98.0 %
Extraction speed 2.8 X
Track quality 99.9 %
Test CRC 323954A5
Copy CRC 323954A5
Track not present in AccurateRip database
Copy OK

Track 29

Filename C:\My Documents\My FLAC\DJ Biscuit & Doc Brown - New Magic In A Dusty World (2003) [FLAC] {Spin Science}\29 - Let's Just Close Our Eyes (Rainy Day Mix).wav

Peak level 88.1 %
Extraction speed 2.2 X
Track quality 99.9 %
Test CRC A97FE7E3
Copy CRC A97FE7E3
Track not present in AccurateRip database
Copy OK

Track 30

Filename C:\My Documents\My FLAC\DJ Biscuit & Doc Brown - New Magic In A Dusty World (2003) [FLAC] {Spin Science}\30 - Hit The Brakes (Part 3).wav

Peak level 78.6 %
Extraction speed 3.0 X
Track quality 100.0 %
Test CRC 2FABAF5D
Copy CRC 2FABAF5D
Track not present in AccurateRip database
Copy OK

Track 31

Filename C:\My Documents\My FLAC\DJ Biscuit & Doc Brown - New Magic In A Dusty World (2003) [FLAC] {Spin Science}\31 - Here We Go!.wav

Peak level 88.7 %
Extraction speed 2.5 X
Track quality 99.8 %
Test CRC 712E6912
Copy CRC 712E6912
Track not present in AccurateRip database
Copy OK

Track 32

Filename C:\My Documents\My FLAC\DJ Biscuit & Doc Brown - New Magic In A Dusty World (2003) [FLAC] {Spin Science}\32 - Glamorous Life (Already Broken Mix).wav

Peak level 84.3 %
Extraction speed 3.4 X
Track quality 99.9 %
Test CRC 5AD32485
Copy CRC 5AD32485
Track not present in AccurateRip database
Copy OK

Track 33

Filename C:\My Documents\My FLAC\DJ Biscuit & Doc Brown - New Magic In A Dusty World (2003) [FLAC] {Spin Science}\33 - Hit The Brakes (Part 4).wav

Peak level 97.6 %
Extraction speed 4.7 X
Track quality 100.0 %
Test CRC 12155CF0
Copy CRC 12155CF0
Track not present in AccurateRip database
Copy OK

Track 34

Filename C:\My Documents\My FLAC\DJ Biscuit & Doc Brown - New Magic In A Dusty World (2003) [FLAC] {Spin Science}\34 - Live At Dominoes (Bells And Whistles Mix).wav

Peak level 92.3 %
Extraction speed 3.9 X
Track quality 99.9 %
Test CRC 0C5CC492
Copy CRC 0C5CC492
Track not present in AccurateRip database
Copy OK

Track 35

Filename C:\My Documents\My FLAC\DJ Biscuit & Doc Brown - New Magic In A Dusty World (2003) [FLAC] {Spin Science}\35 - Friendly End.wav

Peak level 61.9 %
Extraction speed 4.4 X
Track quality 100.0 %
Test CRC EC9AF983
Copy CRC EC9AF983
Track not present in AccurateRip database
Copy OK


None of the tracks are present in the AccurateRip database

No errors occurred

End of status report

–– CUETools DB Plugin V2.1.6

[CTDB TOCID: WxFVnwu38XKC5Liktf_1YeM4VTQ-] disk not present in database
Submit result: WxFVnwu38XKC5Liktf_1YeM4VTQ- has been uploaded


==== Log checksum 597CD1DC6FE89D974DC541E7FD225BA80CA4386D25C25BFCDFF5F7AEC2D341EA ====


DJ Biscuit & Doc Brown - New Magic In A Dusty World (2003) {Spin Science} **[RE-UP]**