Subcategories

Dangermouse - The Grey Album (2004)

Posted By: mook45
Dangermouse - The Grey Album (2004)

Dangermouse - The Grey Album (2004)
EAC | FLAC IMG,CUE+LOG = 293MB | MP3@320 = 110MB | 400 dpi Scans


Dangermouse's 'art project/experiment' from a few years back, featuring the vocals from Jay-Z's Black Album and the music from The Beatles' White Album.

Track listing
1 Public Service Announcement 2:45
2 What More Can I Say 4:25
3 Encore 2:40
4 December 4th 3:34
5 99 Problems 4:06
6 Dirt Off Your Shoulder 3:59
7 Moment Of Clarity 4:00
8 Change Clothes 4:04
9 Allure 4:06
10 Justify My Thug 4:12
11 Lucifer 9 2:01
12 My First Song 4:44

Exact Audio Copy V0.99 prebeta 5 from 4. May 2009

EAC extraction logfile from 28. December 2009, 16:19

Danger Mouse / Grey Album

Used drive : HP DVD Writer 1040r Adapter: 1 ID: 0

Read mode : Secure
Utilize accurate stream : Yes
Defeat audio cache : Yes
Make use of C2 pointers : No

Read offset correction : 6
Overread into Lead-In and Lead-Out : No
Fill up missing offset samples with silence : Yes
Delete leading and trailing silent blocks : No
Null samples used in CRC calculations : Yes
Used interface : Native Win32 interface for Win NT & 2000

Used output format : User Defined Encoder
Selected bitrate : 1024 kBit/s
Quality : High
Add ID3 tag : No
Command line compressor : C:\Program Files\Exact Audio Copy\FLAC\FLAC.EXE
Additional command line options : -5 -V -T "ARTIST=%a" -T "TITLE=%t" -T "ALBUM=%g" -T "DATE=%y" -T "TRACKNUMBER=%n" -T "GENRE=%m" -T "COMMENT=EAC Flac 1.1.2 -5" %s


TOC of the extracted CD

Track | Start | Length | Start sector | End sector
––––––––––––––––––––––––––––-
1 | 0:00.00 | 2:45.55 | 0 | 12429
2 | 2:45.55 | 4:25.22 | 12430 | 32326
3 | 7:11.02 | 2:40.14 | 32327 | 44340
4 | 9:51.16 | 3:34.71 | 44341 | 60461
5 | 13:26.12 | 4:07.25 | 60462 | 79011
6 | 17:33.37 | 3:59.27 | 79012 | 96963
7 | 21:32.64 | 4:00.14 | 96964 | 114977
8 | 25:33.03 | 4:04.58 | 114978 | 133335
9 | 29:37.61 | 4:06.25 | 133336 | 151810
10 | 33:44.11 | 4:13.09 | 151811 | 170794
11 | 37:57.20 | 2:01.28 | 170795 | 179897
12 | 39:58.48 | 4:46.63 | 179898 | 201410


Range status and errors

Selected range

Filename C:\Users\Mike3\Desktop\Danger Mouse - Grey Album (Flac)\Danger Mouse - Grey Album.wav

Peak level 99.1 %
Range quality 100.0 %
Copy CRC CAC40A9B
Copy OK

No errors occurred


AccurateRip summary

Track 1 accurately ripped (confidence 2) [B474B6E2]
Track 2 accurately ripped (confidence 2) [8DEC591E]
Track 3 accurately ripped (confidence 2) [1029923B]
Track 4 accurately ripped (confidence 1) [D3E867BC]
Track 5 accurately ripped (confidence 2) [080292FF]
Track 6 accurately ripped (confidence 2) [4BC84F08]
Track 7 accurately ripped (confidence 2) [0202A426]
Track 8 accurately ripped (confidence 2) [7E7527FE]
Track 9 accurately ripped (confidence 2) [EB8EEC5C]
Track 10 accurately ripped (confidence 2) [4FA6077C]
Track 11 accurately ripped (confidence 2) [7AC293AD]
Track 12 accurately ripped (confidence 2) [5D33C229]

All tracks accurately ripped

End of status report

Files
Lame 320 Kbps = 110MB
Flac 891 Kbps = 293MB


320

http://www.filesonic.com/file/26746901/DM.GA_3_.rar

Flac

http://www.filesonic.com/file/26747089/DM.GA_F_.part1.rar
http://www.filesonic.com/file/26746773/DM.GA_F_.part2.rar

320

http://www.fileserve.com/file/uYbTBh6/DM.GA_3_.rar

Flac

http://www.fileserve.com/file/fpgwJs4/DM.GA_F_.part1.rar
http://www.fileserve.com/file/gw47UEs/DM.GA_F_.part2.rar

No mirrors