Tags
Language
Tags
June 2024
Su Mo Tu We Th Fr Sa
26 27 28 29 30 31 1
2 3 4 5 6 7 8
9 10 11 12 13 14 15
16 17 18 19 20 21 22
23 24 25 26 27 28 29
30 1 2 3 4 5 6

Daniel Haas & Yves Hasselmann - Couleurs Du Temps (1978) [Reissue 1994] (Re-up)

Posted By: gribovar
Daniel Haas & Yves Hasselmann - Couleurs Du Temps (1978) [Reissue 1994] (Re-up)

Daniel Haas & Yves Hasselmann - Couleurs Du Temps (1978) [Reissue 1994]
EAC Rip | FLAC (tracks+.cue+log) - 220 MB | MP3 CBR 320 kbps (LAME 3.93) - 89 MB | Covers - 22 MB
Genre: Instrumental Progressive Rock | RAR 3% Rec. | Label: Spalax (14859)

Daniel Haas formerly playing bass for Ange teams up with Yves Hasselmann (from Traveling) to offer us a great album. On this album Hasselmann's keyboards create an impressionistic and suggestive music, with an atmosphere in turn serene, nostalgic and dreamlike which is sometimes evocative of Catharsis or Fuhrs and Frohling.
Tracklist:
01. A Travers Une Image
02. Quatre Heures
03. Fanfare Mecanique
04. Elodie
05. Ou Je Vais D'ou Je Viens
06. N. 57
07. Couleurs Du Temps
08. Au Petit Matin

Total time: 37:56

Exact Audio Copy V1.0 beta 3 from 29. August 2011

EAC extraction logfile from 15. August 2013, 23:18

Daniel Haas & Yves Hasselmann / Couleurs Du Temps

Used drive : HP DVD Writer 1135r Adapter: 0 ID: 0

Read mode : Secure
Utilize accurate stream : Yes
Defeat audio cache : Yes
Make use of C2 pointers : No

Read offset correction : 6
Overread into Lead-In and Lead-Out : No
Fill up missing offset samples with silence : Yes
Delete leading and trailing silent blocks : No
Null samples used in CRC calculations : Yes
Used interface : Native Win32 interface for Win NT & 2000
Gap handling : Appended to previous track

Used output format : User Defined Encoder
Selected bitrate : 768 kBit/s
Quality : High
Add ID3 tag : No
Command line compressor : C:\Program Files\Exact Audio Copy\Flac\flac.exe
Additional command line options : -6 -V -T "ARTIST=%artist%" -T "TITLE=%title%" -T "ALBUM=%albumtitle%" -T "DATE=%year%" -T "TRACKNUMBER=%tracknr%" -T "GENRE=%genre%" -T "COMMENT=%comment%" -T "BAND=%albuminterpret%" -T "ALBUMARTIST=%albuminterpret%" -T "COMPOSER=%composer%" %haslyrics%–tag-from-file=LYRICS="%lyricsfile%"%haslyrics% -T "DISCNUMBER=%cdnumber%" -T "TOTALDISCS=%totalcds%" -T "TOTALTRACKS=%numtracks%" %hascover%–picture="%coverfile%"%hascover% %source% -o %dest%


TOC of the extracted CD

Track | Start | Length | Start sector | End sector
––––––––––––––––––––––––––––-
1 | 0:00.32 | 3:14.53 | 32 | 14634
2 | 3:15.10 | 3:12.15 | 14635 | 29049
3 | 6:27.25 | 4:38.12 | 29050 | 49911
4 | 11:05.37 | 7:35.68 | 49912 | 84104
5 | 18:41.30 | 3:50.45 | 84105 | 101399
6 | 22:32.00 | 3:58.65 | 101400 | 119314
7 | 26:30.65 | 5:16.30 | 119315 | 143044
8 | 31:47.20 | 6:09.52 | 143045 | 170771


Track 1

Filename C:\Users\Pollux\Music\Daniel Haas & Yves Hasselmann - 1978 - Couleurs Du Temps (Crypto)\01 A Travers Une Image.wav

Pre-gap length 0:00:02.42

Peak level 66.8 %
Extraction speed 2.8 X
Track quality 100.0 %
Test CRC D3E581E4
Copy CRC D3E581E4
Accurately ripped (confidence 1) [E4630176] (AR v1)
Copy OK

Track 2

Filename C:\Users\Pollux\Music\Daniel Haas & Yves Hasselmann - 1978 - Couleurs Du Temps (Crypto)\02 Quatre Heures.wav

Peak level 80.5 %
Extraction speed 2.8 X
Track quality 99.9 %
Test CRC 84A98B95
Copy CRC 84A98B95
Accurately ripped (confidence 1) [952E33A6] (AR v1)
Copy OK

Track 3

Filename C:\Users\Pollux\Music\Daniel Haas & Yves Hasselmann - 1978 - Couleurs Du Temps (Crypto)\03 Fanfare Mecanique.wav

Pre-gap length 0:00:00.80

Peak level 100.0 %
Extraction speed 4.1 X
Track quality 100.0 %
Test CRC 9161EE45
Copy CRC 9161EE45
Accurately ripped (confidence 1) [1B00994F] (AR v1)
Copy OK

Track 4

Filename C:\Users\Pollux\Music\Daniel Haas & Yves Hasselmann - 1978 - Couleurs Du Temps (Crypto)\04 Elodie.wav

Pre-gap length 0:00:00.56

Peak level 88.1 %
Extraction speed 4.9 X
Track quality 100.0 %
Test CRC 682797AD
Copy CRC 682797AD
Accurately ripped (confidence 1) [B3D0503E] (AR v1)
Copy OK

Track 5

Filename C:\Users\Pollux\Music\Daniel Haas & Yves Hasselmann - 1978 - Couleurs Du Temps (Crypto)\05 Ou Je Vais D'Ou Je Viens.wav

Pre-gap length 0:00:01.60

Peak level 72.8 %
Extraction speed 4.9 X
Track quality 100.0 %
Test CRC 3D6BD7D3
Copy CRC 3D6BD7D3
Accurately ripped (confidence 1) [438856A7] (AR v1)
Copy OK

Track 6

Filename C:\Users\Pollux\Music\Daniel Haas & Yves Hasselmann - 1978 - Couleurs Du Temps (Crypto)\06 N. 57.wav

Pre-gap length 0:00:01.00

Peak level 100.0 %
Extraction speed 5.2 X
Track quality 100.0 %
Test CRC 030223FB
Copy CRC 030223FB
Accurately ripped (confidence 1) [9A70E6EE] (AR v1)
Copy OK

Track 7

Filename C:\Users\Pollux\Music\Daniel Haas & Yves Hasselmann - 1978 - Couleurs Du Temps (Crypto)\07 Couleurs Du Temps.wav

Pre-gap length 0:00:01.50

Peak level 88.9 %
Extraction speed 4.7 X
Track quality 99.9 %
Test CRC A41FC784
Copy CRC A41FC784
Accurately ripped (confidence 1) [E981B3DD] (AR v1)
Copy OK

Track 8

Filename C:\Users\Pollux\Music\Daniel Haas & Yves Hasselmann - 1978 - Couleurs Du Temps (Crypto)\08 Au Petit Matin.wav

Pre-gap length 0:00:01.60

Peak level 89.5 %
Extraction speed 6.1 X
Track quality 100.0 %
Test CRC 383608AA
Copy CRC 383608AA
Accurately ripped (confidence 1) [316461E2] (AR v1)
Copy OK


All tracks accurately ripped

No errors occurred

End of status report

==== Log checksum 8FB6D1F3146735CE730DF61E85AC75F3A4EFD018C1142F2638CC842DB4E4A0C7 ====

[CUETools log; Date: 09.07.2021 14:58:35; Version: 2.1.4]
Pregap length 00:00:32.
[CTDB TOCID: T4ZVymb2UoIsKfnvW9NqVRpm4i0-] found.
Track | CTDB Status
1 | (1/1) Accurately ripped
2 | (1/1) Accurately ripped
3 | (1/1) Accurately ripped
4 | (1/1) Accurately ripped
5 | (1/1) Accurately ripped
6 | (1/1) Accurately ripped
7 | (1/1) Accurately ripped
8 | (1/1) Accurately ripped
[AccurateRip ID: 000ade4a-004a2e62-7208e408] found.
Track [ CRC | V2 ] Status
01 [e4630176|e779a1a9] (1+0/1) Accurately ripped
02 [952e33a6|d1d9c52c] (1+0/1) Accurately ripped
03 [1b00994f|69890ccf] (1+0/1) Accurately ripped
04 [b3d0503e|4abe75e8] (1+0/1) Accurately ripped
05 [438856a7|cc3e6c99] (1+0/1) Accurately ripped
06 [9a70e6ee|1e41782a] (1+0/1) Accurately ripped
07 [e981b3dd|12900e0b] (1+0/1) Accurately ripped
08 [316461e2|e144497c] (1+0/1) Accurately ripped

Track Peak [ CRC32 ] [W/O NULL] [ LOG ]
– 100,0 [E6DAD4F2] [1BDA29FA]
01 66,8 [D3E581E4] [6E011814] CRC32
02 80,5 [84A98B95] [97F9C7D4] CRC32
03 100,0 [9161EE45] [2FDCAFB3] CRC32
04 88,1 [682797AD] [F3E04C38] CRC32
05 72,8 [3D6BD7D3] [3CFFAA3F] CRC32
06 100,0 [030223FB] [E8DB99B4] CRC32
07 88,9 [A41FC784] [AFCCD6E5] CRC32
08 89,5 [383608AA] [08333C3C] CRC32

Thanks to Pollux