Subcategories

David Oistrakh String Quartet - Grieg: String Quartet No. 1 - Mendelssohn: String Quartet No. 2 (2017)

Posted By: SERTiL
David Oistrakh String Quartet - Grieg: String Quartet No. 1 - Mendelssohn: String Quartet No. 2 (2017)

David Oistrakh String Quartet - Grieg: String Quartet No. 1 - Mendelssohn: String Quartet No. 2
Classical | WEB FLAC (tracks) & d. booklet | 64:32 min | 332 MB
Label: MUSO | Tracks: 09 | Rls.date: 2017

The first recording of the David Oistrakh Quartet received much praise from the press ("No sooner formed, this young quartet already reaches excellence."). Achieving comparison with the Borodin and the Beethoven Quartets, this young group offers an impassioned performance of Grieg and Mendelssohn: a powerful, contrasted, physical and always subtly emotional performance.

Tracklist:
01. String Quartet No. 1 in G Minor, Op. 27: I. Un poco andante. Allegro molto ed agitato
02. String Quartet No. 1 in G Minor, Op. 27: II. Romanze. Andantino-Allegro agitato
03. String Quartet No. 1 in G Minor, Op. 27: III. Intermezzo. Allegro molto marcato-Più vivo e scherzando
04. String Quartet No. 1 in G Minor, Op. 27: IV. Finale. Lento-Presto al saltarello
05. String Quartet No. 2 in A Minor, Op. 13: I. Adagio. Allegro vivace
06. String Quartet No. 2 in A Minor, Op. 13: II. Adagio non lento
07. String Quartet No. 2 in A Minor, Op. 13: III. Intermezzo. Allegretto con moto-Allegro di molto
08. String Quartet No. 2 in A Minor, Op. 13: IV. Presto. Adagio non lento
09. Caprice for violin solo No. 20 in D Major, Op. 1

PERFORMER: auCDtect Task Manager, ver. 1.6.0 RC1 build 1.6.0.1
Copyright © 2008-2010 y-soft. All rights reserved

ANALYZER: auCDtect: CD records authenticity detector, version 0.8.2
Copyright © 2004 Oleg Berngardt. All rights reserved.
Copyright © 2004 Alexander Djourik. All rights reserved.


FILE: 09. Caprice for violin solo No. 20 in D Major, Op. 1.flac
Size: 21204280 Hash: 5BA57C4A63277E7D3D3B270C30EAA3E3 Accuracy: -m0
Conclusion: CDDA 100%
Signature: 96BAC332B4F1B4DAD8B295EA932EEC5B1BD8B3DE
FILE: 08. String Quartet No. 2 in A Minor, Op. 13 IV. Presto. Adagio non lento.flac
Size: 46025035 Hash: EE706CFADCC83191F950A5E29D758FC7 Accuracy: -m0
Conclusion: CDDA 100%
Signature: AE508176BB2B68A6E94ABE82F332D52FEAE9A3E6
FILE: 07. String Quartet No. 2 in A Minor, Op. 13 III. Intermezzo. Allegretto con moto-Allegro di molto.flac
Size: 21535736 Hash: B9DE57F48DE3B5EBC2FE33D5791EAC5C Accuracy: -m0
Conclusion: CDDA 100%
Signature: BACDF720F9702FBF70DBC0ECF5733A96DF68B11C
FILE: 06. String Quartet No. 2 in A Minor, Op. 13 II. Adagio non lento.flac
Size: 42116329 Hash: 6F06443981944387E12AC870754B77CB Accuracy: -m0
Conclusion: CDDA 100%
Signature: DC245472E7CCBD624E8B2F0D8E5CD761F1528432
FILE: 05. String Quartet No. 2 in A Minor, Op. 13 I. Adagio. Allegro vivace.flac
Size: 41463869 Hash: CA2C2E09107903789B259B672E394C9E Accuracy: -m0
Conclusion: CDDA 99%
Signature: 726AF420FCE4D7FBC01B2EB7B0232BF42A38CD09
FILE: 04. String Quartet No. 1 in G Minor, Op. 27 IV. Finale. Lento-Presto al saltarello.flac
Size: 46062729 Hash: 93E03BD77BAB48C0147AABB75AFACC03 Accuracy: -m0
Conclusion: CDDA 100%
Signature: 936608EDDFDB0BE6359CF541F13E968A1073BF6F
FILE: 03. String Quartet No. 1 in G Minor, Op. 27 III. Intermezzo. Allegro molto marcato-Più vivo e scherzando.flac
Size: 34149644 Hash: 2F2AADFCB70419D7A90A397656706942 Accuracy: -m0
Conclusion: CDDA 100%
Signature: 1EA26178E27580C015F5BE167904ED10CB08A592
FILE: 02. String Quartet No. 1 in G Minor, Op. 27 II. Romanze. Andantino-Allegro agitato.flac
Size: 30503779 Hash: 696CB226495FE15FC03EE2C40460238C Accuracy: -m0
Conclusion: CDDA 100%
Signature: B8E03A819CC9A16BE89E9BC7E233F96A4FA47C61
FILE: 01. String Quartet No. 1 in G Minor, Op. 27 I. Un poco andante. Allegro molto ed agitato.flac
Size: 64360702 Hash: 17392CE81632D60D3079A278DE79FD31 Accuracy: -m0
Conclusion: CDDA 100%
Signature: 1D9E736FDFAAEE5833B0B770FFBB30F7E00D8FA6

foobar2000 1.3.7 / Dynamic Range Meter 1.1.1
log date: 2017-11-06 23:04:34

––––––––––––––––––––––––––––––––––––––––
Analyzed: David Oistrakh String Quartet / Grieg: String Quartet No. 1 - Mendelssohn: String Quartet No. 2
––––––––––––––––––––––––––––––––––––––––

DR Peak RMS Duration Track
––––––––––––––––––––––––––––––––––––––––
DR12 -0.86 dB -18.21 dB 11:47 01-String Quartet No. 1 in G Minor, Op. 27: I. Un poco andante. Allegro molto ed agitato
DR14 -2.66 dB -22.10 dB 5:50 02-String Quartet No. 1 in G Minor, Op. 27: II. Romanze. Andantino-Allegro agitato
DR12 -0.67 dB -18.28 dB 6:24 03-String Quartet No. 1 in G Minor, Op. 27: III. Intermezzo. Allegro molto marcato-Più vivo e scherzando
DR10 -0.64 dB -16.46 dB 8:10 04-String Quartet No. 1 in G Minor, Op. 27: IV. Finale. Lento-Presto al saltarello
DR12 -0.17 dB -17.56 dB 7:24 05-String Quartet No. 2 in A Minor, Op. 13: I. Adagio. Allegro vivace
DR13 -0.12 dB -19.52 dB 8:10 06-String Quartet No. 2 in A Minor, Op. 13: II. Adagio non lento
DR13 -10.10 dB -28.05 dB 4:34 07-String Quartet No. 2 in A Minor, Op. 13: III. Intermezzo. Allegretto con moto-Allegro di molto
DR12 -0.17 dB -18.54 dB 8:36 08-String Quartet No. 2 in A Minor, Op. 13: IV. Presto. Adagio non lento
DR14 -0.70 dB -19.21 dB 3:45 09-Caprice for violin solo No. 20 in D Major, Op. 1
––––––––––––––––––––––––––––––––––––––––

Number of tracks: 9
Official DR value: DR12

Samplerate: 44100 Hz
Channels: 2
Bits per sample: 16
Bitrate: 744 kbps
Codec: FLAC
================================================================================


Thanks to the Original customer.