Subcategories

David Daniels, Fabio Biondi, Europa Galante - Vivaldi: Stabat Mater, Nisi Dominus, Longe mala (2001)

Posted By: ArlegZ
David Daniels, Fabio Biondi, Europa Galante - Vivaldi: Stabat Mater, Nisi Dominus, Longe mala (2001)

David Daniels, Fabio Biondi, Europa Galante - Vivaldi: Stabat Mater, Nisi Dominus, Longe mala (2001)
EAC | FLAC | Image (Cue & Log) ~ 255 Mb | Total time: 55:25 | Scans included
Classical | Label: Virgin Veritas | # 5 45474 2 | Recorded: 2001

The "Stabat Mater" is most substantial. Alternating recitatives and arias, often framed by instrumental ritornellos, it is heartbreakingly mournful, but ends peacefully before closing with a whole aria on "Amen." The other two works are real bravura pieces for the singer. They cover an enormous range and are full of florid coloratura passages and wide leaps. "Nisi Dominus" is very dramatic, with mysterious chromatic lines and big climaxes; "Longe mala" goes from defiant vehemence through fervent entreaty to serene resignation.
The performances are fabulous. David Daniels's voice has a pure, unearthly beauty and is perfectly even in quality across a huge range. Every note is meticulously placed and in tune, his breath control is incredible, his stylistic and emotional identification with the music complete. The musicians of Europa Galante support him splendidly, not as an accompanying group, but as true partners, playing with a lovely sound, imaginative ornamentation, and great expressiveness. The record's only flaw is that Daniels's breathing is clearly audible; he must have stood too close to the microphone.
-Edith Eisler

Performer:
David Daniels, countertenor
Europa Galante
Fabio Biondi, violin, viola d’amore & direction

Track List:
01. Stabat Mater RV 621: I. Stabat Mater dolorosa
02. II. Cujus animam
03. III. O quam tristis
04. IV. Quis est homo
05. V. Quis non posset
06. VI. Pro peccatis
07. VII. Eja Mater
08. VIII. Fac ut ardeat
09. IX. Amen
10. Nisi Dominus RV 608: I. Nisi Dominus
11. II. Vanum est vobis
12. III. Surgite postquam sederitis
13. IV. Cum dederit dilectis
14. V. Sicut sagittae
15. VI. Beatus vir
16. VII. Gloria Patri
17. VIII. Sicut erat
18. IX. Amen
19. Longe mala, umbrae, terrores RV 629: I. Longe mala
20. II. Recedite, nubes et fulgura
21. III. Descende, o coeli vox
22. IV. Alleluia


Exact Audio Copy V1.3 from 2. September 2016

EAC extraction logfile from 4. October 2017, 22:12

David Daniels, Fabio Biondi, Europa Galante / Vivaldi - Stabat Mater, Nisi Dominus, Longe Mala

Used drive : PIONEER DVD-RW DVR-218L Adapter: 1 ID: 0

Read mode : Secure
Utilize accurate stream : Yes
Defeat audio cache : Yes
Make use of C2 pointers : No

Read offset correction : 6
Overread into Lead-In and Lead-Out : No
Fill up missing offset samples with silence : Yes
Delete leading and trailing silent blocks : No
Null samples used in CRC calculations : Yes
Used interface : Native Win32 interface for Win NT & 2000

Used output format : User Defined Encoder
Selected bitrate : 128 kBit/s
Quality : High
Add ID3 tag : No
Command line compressor : C:\Program Files\Exact Audio Copy\Flac\flac.exe
Additional command line options : -V -8 -T "Date=%year%" -T "Genre=%genre%" %source%


TOC of the extracted CD

Track | Start | Length | Start sector | End sector
––––––––––––––––––––––––––––-
1 | 0:00.00 | 3:18.27 | 0 | 14876
2 | 3:18.27 | 1:47.33 | 14877 | 22934
3 | 5:05.60 | 1:34.15 | 22935 | 29999
4 | 6:40.00 | 3:09.52 | 30000 | 44226
5 | 9:49.52 | 1:54.10 | 44227 | 52786
6 | 11:43.62 | 1:33.50 | 52787 | 59811
7 | 13:17.37 | 2:26.73 | 59812 | 70834
8 | 15:44.35 | 1:19.67 | 70835 | 76826
9 | 17:04.27 | 1:08.35 | 76827 | 81961
10 | 18:12.62 | 2:53.58 | 81962 | 94994
11 | 21:06.45 | 1:29.70 | 94995 | 101739
12 | 22:36.40 | 1:37.62 | 101740 | 109076
13 | 24:14.27 | 3:51.05 | 109077 | 126406
14 | 28:05.32 | 1:45.70 | 126407 | 134351
15 | 29:51.27 | 1:34.70 | 134352 | 141471
16 | 31:26.22 | 5:09.35 | 141472 | 164681
17 | 36:35.57 | 1:05.10 | 164682 | 169566
18 | 37:40.67 | 1:44.45 | 169567 | 177411
19 | 39:25.37 | 5:10.60 | 177412 | 200721
20 | 44:36.22 | 0:33.35 | 200722 | 203231
21 | 45:09.57 | 7:55.65 | 203232 | 238921
22 | 53:05.47 | 2:17.35 | 238922 | 249231


Range status and errors

Selected range

Filename C:\Program Files\Exact Audio Copy\Flac\Vivaldi - Stabat Mater, Nisi Dominus, Longe Mala.wav

Peak level 90.2 %
Extraction speed 1.9 X
Range quality 100.0 %
Test CRC 3942AA63
Copy CRC 3942AA63
Copy OK

No errors occurred


AccurateRip summary

Track 1 accurately ripped (confidence 24) [A52EF2C3] (AR v2)
Track 2 accurately ripped (confidence 24) [B6D3141F] (AR v2)
Track 3 accurately ripped (confidence 24) [D59FC508] (AR v2)
Track 4 accurately ripped (confidence 24) [EA7F36EB] (AR v2)
Track 5 accurately ripped (confidence 24) [7C3CB3F2] (AR v2)
Track 6 accurately ripped (confidence 24) [C5C3D925] (AR v2)
Track 7 accurately ripped (confidence 24) [B5C78C12] (AR v2)
Track 8 accurately ripped (confidence 24) [CEBDD878] (AR v2)
Track 9 accurately ripped (confidence 24) [41F2D049] (AR v2)
Track 10 accurately ripped (confidence 24) [DA5A15D3] (AR v2)
Track 11 accurately ripped (confidence 24) [1E00B7A2] (AR v2)
Track 12 accurately ripped (confidence 24) [4931E869] (AR v2)
Track 13 accurately ripped (confidence 24) [25E515C0] (AR v2)
Track 14 accurately ripped (confidence 24) [DB158340] (AR v2)
Track 15 accurately ripped (confidence 24) [F5E36AC4] (AR v2)
Track 16 accurately ripped (confidence 24) [43DE5484] (AR v2)
Track 17 accurately ripped (confidence 24) [B5E5C9F2] (AR v2)
Track 18 accurately ripped (confidence 24) [64E9D069] (AR v2)
Track 19 accurately ripped (confidence 24) [7D0A1DFB] (AR v2)
Track 20 accurately ripped (confidence 24) [84C5E01B] (AR v2)
Track 21 accurately ripped (confidence 24) [1448CEFE] (AR v2)
Track 22 accurately ripped (confidence 24) [C9AF6156] (AR v2)

All tracks accurately ripped

End of status report

==== Log checksum F4CBD81D21157293754DAB1D6FC064D7A9C22138BA5B1F445408654C524B478B ====