Subcategories

David Oistrakh, Berlin Philharmonic Orchestra - Mozart: Violin Concertos Nos. 1-3; Rondo (2001)

Posted By: ArlegZ
David Oistrakh, Berlin Philharmonic Orchestra - Mozart: Violin Concertos Nos. 1-3; Rondo (2001)

David Oistrakh, Berlin Philharmonic Orchestra - Mozart: Violin Concertos Nos. 1-3; Rondo (2001)
EAC | FLAC | Image (Cue & Log) ~ 363 Mb | Total time: 75:44 | Scans included
Classical | Label: EMI | # 5 74577 2 | Recorded: 1971

There are plenty of available versions of the Mozart Violin Concertos, but few that can match the recordings David Oistrakh made in Berlin back in 1971. His big, juicy tone is irresistible, as is his flowing legato line and the intensity with which he elevates what sometimes (in unsympathetic performances) can seem like mere juvenilia. The first two of Mozart’s concertos for solo violin do display less variety and depth than the later ones, but the 19-year-old was a fast learner, writing all five of them within eight months in 1775.
The early concertos are fetching works, but by the Third we’re in different territory: orchestration is more varied and interesting, the violin part more brilliant, and, as Alfred Einstein wrote, “… there is an Adagio that seems to have fallen straight from heaven.” That’s how Oistrakh plays it, too, spinning gorgeously tinted, lovingly caressed lines, eliciting an other-worldly orchestral entrance at its start. Here as elsewhere, his playing is alive with subtle rubatos that always seem to intensify the music without breaking the line. Listening to playing at this exalted level, you’re always wondering, “how in the world did he do that?”
The brief but strikingly beautiful Rondo in C is the filler, and here we’re witness to the way Oistrakh’s magic extends to his “conducting”–which means rehearsing the orchestra and cueing the players from his solo position during performance. Although their numbers are far greater than the attenuated Mozart orchestra lineups preferred today, the Berliners play with rhythmic alertness and never sound spongy.
–Dan Davis

Performer:
David Oistrakh, violin & director
Berlin Philharmonic Orchestra

Track List:
Violin Concerto No. 1 in B flat major, K. 207
01. 1: Allegro moderato
02. 2: Adagio
03. 3: Presto
Violin Concerto No. 2 in D major, K. 211
04. 1: Allegro moderato
05. 2: Andante
06. 3: Rondeau (Allegro)
Violin Concerto No. 3 in G major, K. 216
07. 1: Allegro
08. 2: Adagio
09. 3: Rondeau (Allegro-Andante-Allegretto)
10. Rondo for violin & orchestra in C major, K. 373


Exact Audio Copy V1.3 from 2. September 2016

EAC extraction logfile from 31. May 2019, 15:05

David Oistrakh, Berliner Philharmoniker / Mozart - Violin Concertos Nos. 1 - 3

Used drive : PIONEER DVD-RW DVR-218L Adapter: 1 ID: 0

Read mode : Secure
Utilize accurate stream : Yes
Defeat audio cache : Yes
Make use of C2 pointers : No

Read offset correction : 6
Overread into Lead-In and Lead-Out : No
Fill up missing offset samples with silence : Yes
Delete leading and trailing silent blocks : No
Null samples used in CRC calculations : Yes
Used interface : Native Win32 interface for Win NT & 2000

Used output format : User Defined Encoder
Selected bitrate : 128 kBit/s
Quality : High
Add ID3 tag : No
Command line compressor : C:\Program Files\Exact Audio Copy\FLAC\FLAC.EXE
Additional command line options : -V -8 -T "Date=%year%" -T "Genre=%genre%" %source%


TOC of the extracted CD

Track | Start | Length | Start sector | End sector
––––––––––––––––––––––––––––-
1 | 0:00.32 | 8:05.48 | 32 | 36454
2 | 8:06.05 | 8:38.62 | 36455 | 75366
3 | 16:44.67 | 6:05.40 | 75367 | 102781
4 | 22:50.32 | 8:17.30 | 102782 | 140086
5 | 31:07.62 | 7:50.53 | 140087 | 175389
6 | 38:58.40 | 5:01.67 | 175390 | 198031
7 | 44:00.32 | 9:10.10 | 198032 | 239291
8 | 53:10.42 | 9:26.43 | 239292 | 281784
9 | 62:37.10 | 6:55.37 | 281785 | 312946
10 | 69:32.47 | 6:12.38 | 312947 | 340884


Range status and errors

Selected range

Filename C:\Program Files\Exact Audio Copy\Flac\Mozart - Violin Concertos Nos. 1 - 3.wav

Peak level 100.0 %
Extraction speed 2.1 X
Range quality 100.0 %
Test CRC 1DC0F078
Copy CRC 1DC0F078
Copy OK

No errors occurred


AccurateRip summary

Track 1 accurately ripped (confidence 55) [151B7C21] (AR v2)
Track 2 accurately ripped (confidence 55) [289A43A9] (AR v2)
Track 3 accurately ripped (confidence 55) [BD57D2E7] (AR v2)
Track 4 accurately ripped (confidence 55) [2A36D999] (AR v2)
Track 5 accurately ripped (confidence 55) [DA38ED59] (AR v2)
Track 6 accurately ripped (confidence 55) [532E5C1C] (AR v2)
Track 7 accurately ripped (confidence 55) [60AD7320] (AR v2)
Track 8 accurately ripped (confidence 55) [D732987D] (AR v2)
Track 9 accurately ripped (confidence 55) [D03CE27E] (AR v2)
Track 10 accurately ripped (confidence 51) [904344C1] (AR v2)

All tracks accurately ripped

End of status report

==== Log checksum E9D4850530FEF92F0A5B98ECB92A17358344D59CDE56F3C90D2C8B46DA5F34B8 ====

David Oistrakh, Berlin Philharmonic Orchestra - Mozart: Violin Concertos Nos. 1-3; Rondo (2001)