Tags
Language
Tags

Deep Purple - In Rock (1971)

Posted By: v3122
Deep Purple - In Rock (1971)

Deep Purple - In Rock (1971)
EAC | Flac(Image) + Cue + Log & MP3 CBR 320Kbps
2017 | KronStudioLab Int'l, KSLCD 128-7420 | ~ 421 or 155 Mb | Scans(jpg) -> 9.31 Mb
Hard Rock | Remastered | Unofficial Release

After satisfying all of their classical music kinks with keyboard player Jon Lord's overblown Concerto for Group and Orchestra, Deep Purple's soon to be classic Mark II version made its proper debut and established the sonic blueprint that would immortalize this lineup of the band on 1970's awesome In Rock. The cacophony of sound (spearheaded by Ritchie Blackmore's blistering guitar solo) introducing opener "Speed King" made it immediately obvious that the band was no longer fooling around, but the slightly less intense "Bloodsucker" did afford stunned listeners a chance to catch their breaths before the band launched into the album's epic, ten-minute tour de force, "Child in Time." In what still stands as arguably his single greatest performance, singer Ian Gillan led his bandmates on a series of hypnotizing crescendos, from the song's gentle beginning through to its ear-shattering climax and then back again for an even more intense encore that brought the original vinyl album's seismic first side to a close. Side two opened with the searing power chords of "Flight of the Rat" – another example of the band's new take-no-prisoners hard rock stance, though at nearly eight minutes, it too found room for some extended soloing from Blackmore and Lord. Next, "Into the Fire" and "Living Wreck" proved more concise but equally appealing, and though closer "Hard Lovin' Man" finally saw the new-look Deep Purple waffling on a bit too long before descending into feedback, the die was cast for one of heavy metal's defining albums.

by Eduardo Rivadavia, allmusic
Deep Purple - In Rock (1971):

Deep Purple - In Rock (1971)

Tracklist:

1 Speed King
2 Bloodsucker
3 Child In Time
4 Flight Of The Rat
5 Into The Fire
6 Living Wreck
7 Hard Lovin' Man

Bonus Tracks:
8 Kentucky Woman
9 Emmaretta
10 The Bird Has Flow
11 Hallelujah
12 Speed King
13 Black Night

Exact Audio Copy V1.1 from 23. June 2015

EAC extraction logfile from 18. July 2017, 14:24

Deep Purple / In Rock (KSLCD 128-7420)

Used drive : TSSTcorpCDDVDW SH-224DB Adapter: 1 ID: 0

Read mode : Secure
Utilize accurate stream : Yes
Defeat audio cache : Yes
Make use of C2 pointers : No

Read offset correction : 6
Overread into Lead-In and Lead-Out : No
Fill up missing offset samples with silence : Yes
Delete leading and trailing silent blocks : No
Null samples used in CRC calculations : Yes
Used interface : Native Win32 interface for Win NT & 2000

Used output format : User Defined Encoder
Selected bitrate : 1024 kBit/s
Quality : High
Add ID3 tag : No
Command line compressor : C:\Program Files (x86)\Exact Audio Copy\win64\flac.exe
Additional command line options : -8 -V -T "ARTIST=%artist%" -T "TITLE=%title%" -T "ALBUM=%albumtitle%" -T "DATE=%year%" -T "TRACKNUMBER=%tracknr%" -T "GENRE=%genre%" -T "COMMENT=%comment%" %source% -o %dest%


TOC of the extracted CD

Track | Start | Length | Start sector | End sector
––––––––––––––––––––––––––––-
1 | 0:00.00 | 5:55.56 | 0 | 26680
2 | 5:55.56 | 4:15.67 | 26681 | 45872
3 | 10:11.48 | 10:19.57 | 45873 | 92354
4 | 20:31.30 | 7:57.60 | 92355 | 128189
5 | 28:29.15 | 3:29.56 | 128190 | 143920
6 | 31:58.71 | 4:35.53 | 143921 | 164598
7 | 36:34.49 | 7:13.53 | 164599 | 197126
8 | 43:48.27 | 4:04.43 | 197127 | 215469
9 | 47:52.70 | 3:00.12 | 215470 | 228981
10 | 50:53.07 | 2:52.40 | 228982 | 241921
11 | 53:45.47 | 3:42.69 | 241922 | 258640
12 | 57:28.41 | 4:26.40 | 258641 | 278630
13 | 61:55.06 | 3:27.47 | 278631 | 294202


Range status and errors

Selected range

Filename F:\Sket4er\Deep Purple - In Rock (KSLCD 128-7420) 2017\Deep Purple - In Rock (KSLCD 128-7420).wav

Peak level 100.0 %
Extraction speed 3.3 X
Range quality 100.0 %
Test CRC 7644140F
Copy CRC 7644140F
Copy OK

No errors occurred


AccurateRip summary

Track 1 not present in database
Track 2 not present in database
Track 3 not present in database
Track 4 not present in database
Track 5 not present in database
Track 6 not present in database
Track 7 not present in database
Track 8 not present in database
Track 9 not present in database
Track 10 not present in database
Track 11 not present in database
Track 12 not present in database
Track 13 not present in database

None of the tracks are present in the AccurateRip database

End of status report

–– CUETools DB Plugin V2.1.6

[CTDB TOCID: nkgcC00U1995t15V5HIrWr7CvvY-] found
Submit result: nkgcC00U1995t15V5HIrWr7CvvY- has been confirmed
Track | CTDB Status
1 | (2/2) Accurately ripped
2 | (2/2) Accurately ripped
3 | (2/2) Accurately ripped
4 | (2/2) Accurately ripped
5 | (2/2) Accurately ripped
6 | (2/2) Accurately ripped
7 | (2/2) Accurately ripped
8 | (2/2) Accurately ripped
9 | (2/2) Accurately ripped
10 | (2/2) Accurately ripped
11 | (2/2) Accurately ripped
12 | (2/2) Accurately ripped
13 | (2/2) Accurately ripped


==== Log checksum 1F000BDF972C7091486BD8FCC4EE2FB7DED81E157C93F8ABB5882BA833E78A61 ====

foobar2000 1.2.9 / Dynamic Range Meter 1.1.1
log date: 2017-07-19 07:24:04

––––––––––––––––––––––––––––––––––––––––
Analyzed: Deep Purple / In Rock (KSLCD 128-7420)
––––––––––––––––––––––––––––––––––––––––

DR Peak RMS Duration Track
––––––––––––––––––––––––––––––––––––––––
DR9 0.00 dB -10.99 dB 5:56 01-Speed King
DR9 0.00 dB -11.01 dB 4:16 02-Bloodsucker
DR8 0.00 dB -10.98 dB 10:20 03-Child In Time
DR10 0.00 dB -11.00 dB 7:58 04-Flight Of The Rat
DR10 0.00 dB -10.98 dB 3:30 05-Into The Fire
DR9 0.00 dB -10.98 dB 4:36 06-Living Wreck
DR9 0.00 dB -10.99 dB 7:14 07-Hard Lovin' Man
DR9 -1.00 dB -11.00 dB 4:05 08-Kentucky Woman
DR8 -1.76 dB -10.97 dB 3:00 09-Emmaretta
DR7 -2.80 dB -11.01 dB 2:53 10-The Bird Has Flow
DR9 -1.44 dB -11.02 dB 3:43 11-Hallelujah
DR7 -2.50 dB -10.98 dB 4:27 12-Speed King
DR7 -3.24 dB -11.03 dB 3:28 13-Black Night
––––––––––––––––––––––––––––––––––––––––

Number of tracks: 13
Official DR value: DR9

Samplerate: 44100 Hz
Channels: 2
Bits per sample: 16
Bitrate: 874 kbps
Codec: FLAC

[CUETools log; Date: 19.07.2017 0:51:05; Version: 2.1.4]
[CTDB TOCID: nkgcC00U1995t15V5HIrWr7CvvY-] found.
Track | CTDB Status
1 | (3/3) Accurately ripped
2 | (3/3) Accurately ripped
3 | (3/3) Accurately ripped
4 | (3/3) Accurately ripped
5 | (3/3) Accurately ripped
6 | (3/3) Accurately ripped
7 | (3/3) Accurately ripped
8 | (3/3) Accurately ripped
9 | (3/3) Accurately ripped
10 | (3/3) Accurately ripped
11 | (3/3) Accurately ripped
12 | (3/3) Accurately ripped
13 | (3/3) Accurately ripped
[AccurateRip ID: 00235933-0157c3f8-a50f520d] disk not present in database.

Track Peak [ CRC32 ] [W/O NULL] [ LOG ]
– 100,0 [7644140F] [E429FF58] CRC32
01 100,0 [AF50F7F9] [BFD5B649]
02 100,0 [623A6269] [B92F8015]
03 100,0 [188D82B5] [28656291]
04 100,0 [A2CE87B4] [0A4EBEFE]
05 100,0 [E20113A7] [54EDD426]
06 100,0 [B9871D91] [CAEB0142]
07 100,0 [54E02069] [8E97FD47]
08 89,1 [A02BC1C9] [035A6107]
09 81,6 [9077148F] [2D3C51FD]
10 72,4 [5B4536A6] [6875ABEC]
11 84,7 [B401DF2F] [A539BDB0]
12 74,9 [FC4FC1AA] [C4727067]
13 68,8 [4146FD1C] [88117E56]

Deep Purple - In Rock (1971)

All thanks go to Sket4er

Deep Purple in my Blog

Download Deep Purple - In Rock (1971):