Tags
Language
Tags

Deep Purple - In Rock (1970) [25th Anniversary Edition] Re-up

Posted By: v3122
Deep Purple - In Rock (1970) [25th Anniversary Edition] Re-up

Deep Purple - In Rock (1970)
EAC | Flac(Image) + Cue + Log & MP3 CBR 320Kbp's
1995 | EMI, 7243 8 34019 2 5 | ~ 494 or 185 Mb | Scans(jpg) -> 131 Mb
Hard Rock | Remastered | Bonus Tracks

After satisfying all of their classical music kinks with keyboard player Jon Lord's overblown Concerto for Group and Orchestra, Deep Purple's soon to be classic Mark II version made its proper debut and established the sonic blueprint that would immortalize this lineup of the band on 1970's awesome In Rock. The cacophony of sound (spearheaded by Ritchie Blackmore's blistering guitar solo) introducing opener "Speed King" made it immediately obvious that the band was no longer fooling around, but the slightly less intense "Bloodsucker" did afford stunned listeners a chance to catch their breaths before the band launched into the album's epic, ten-minute tour de force, "Child in Time." In what still stands as arguably his single greatest performance, singer Ian Gillan led his bandmates on a series of hypnotizing crescendos, from the song's gentle beginning through to its ear-shattering climax and then back again for an even more intense encore that brought the original vinyl album's seismic first side to a close. Side two opened with the searing power chords of "Flight of the Rat" – another example of the band's new take-no-prisoners hard rock stance, though at nearly eight minutes, it too found room for some extended soloing from Blackmore and Lord. Next, "Into the Fire" and "Living Wreck" proved more concise but equally appealing, and though closer "Hard Lovin' Man" finally saw the new-look Deep Purple waffling on a bit too long before descending into feedback, the die was cast for one of heavy metal's defining albums.

by Eduardo Rivadavia, AMG
Deep Purple - In Rock (1970) [25th Anniversary Edition] Re-up

Deep Purple - In Rock (1970):

Deep Purple - In Rock (1970) [25th Anniversary Edition] Re-up

Tracklist:

01. Speed King 5:53
02. Bloodsucker 4:13
03. Child in Time 10:18
04. Flight of the Rat 7:55
05. Into the Fire 3:29
06. Living Wreck 4:32
07. Hard Lovin' Man 7:11
08. Black Night (Original single version) 3:28
09. Studio Chat 0:34
10. Speed King (Piano version) 4:16
11. Studio Chat 0:27
12. Cry Free (Roger Glover remix) 3:22
13. Studio Chat 0:06
14. Jam Stew (Unreleased instrumental) 2:32
15. Studio Chat 0:41
16. Flight of the Rat (Roger Glover remix) 7:55
17. Studio Chat 0:32
18. Speed King (Roger Glover remix) 5:53
19. Studio Chat 0:24
20. Black Night (Unedited Roger Glover remix) 4:48

Exact Audio Copy V0.99 prebeta 5 from 4. May 2009

EAC extraction logfile from 13. May 2012, 22:41

Deep Purple / In Rock- 25th Anniversary Edition

Used drive : ASUS DRW-24B3ST Adapter: 0 ID: 0

Read mode : Secure
Utilize accurate stream : Yes
Defeat audio cache : Yes
Make use of C2 pointers : No

Read offset correction : 6
Overread into Lead-In and Lead-Out : No
Fill up missing offset samples with silence : Yes
Delete leading and trailing silent blocks : No
Null samples used in CRC calculations : Yes
Used interface : Native Win32 interface for Win NT & 2000

Used output format : User Defined Encoder
Selected bitrate : 1024 kBit/s
Quality : High
Add ID3 tag : No
Command line compressor : C:\Program Files (x86)\EAC\WV\wavpack.exe
Additional command line options : -h -hh -m %s %d


TOC of the extracted CD

Track | Start | Length | Start sector | End sector
––––––––––––––––––––––––––––-
1 | 0:00.00 | 5:53.12 | 0 | 26486
2 | 5:53.12 | 4:13.00 | 26487 | 45461
3 | 10:06.12 | 10:18.00 | 45462 | 91811
4 | 20:24.12 | 7:55.20 | 91812 | 127456
5 | 28:19.32 | 3:29.08 | 127457 | 143139
6 | 31:48.40 | 4:31.62 | 143140 | 163526
7 | 36:20.27 | 7:10.35 | 163527 | 195811
8 | 43:30.62 | 3:27.58 | 195812 | 211394
9 | 46:58.45 | 0:33.47 | 211395 | 213916
10 | 47:32.17 | 4:15.38 | 213917 | 233079
11 | 51:47.55 | 0:27.17 | 233080 | 235121
12 | 52:14.72 | 3:21.58 | 235122 | 250254
13 | 55:36.55 | 0:05.37 | 250255 | 250666
14 | 55:42.17 | 2:31.65 | 250667 | 262056
15 | 58:14.07 | 0:40.73 | 262057 | 265129
16 | 58:55.05 | 7:55.27 | 265130 | 300781
17 | 66:50.32 | 0:31.68 | 300782 | 303174
18 | 67:22.25 | 5:53.25 | 303175 | 329674
19 | 73:15.50 | 0:23.72 | 329675 | 331471
20 | 73:39.47 | 4:47.15 | 331472 | 353011


Range status and errors

Selected range

Filename G:\DEEP PURPLE\1995- In Rock- 25th Anniversary Edition (NL EMI • 7243 8 34019 2 5)\Deep Purple - In Rock- 25th Anniversary Edition.wav

Peak level 100.0 %
Range quality 100.0 %
Test CRC 6878940D
Copy CRC 6878940D
Copy OK

No errors occurred


AccurateRip summary

Track 1 accurately ripped (confidence 4) [3018E668]
Track 2 accurately ripped (confidence 4) [4C41BE60]
Track 3 accurately ripped (confidence 4) [1647482B]
Track 4 accurately ripped (confidence 4) [12FF0DE3]
Track 5 accurately ripped (confidence 4) [3259A1AC]
Track 6 accurately ripped (confidence 4) [831483CD]
Track 7 accurately ripped (confidence 4) [467E371E]
Track 8 accurately ripped (confidence 4) [AE9201FF]
Track 9 accurately ripped (confidence 4) [76A8ED96]
Track 10 accurately ripped (confidence 4) [F1008CC9]
Track 11 accurately ripped (confidence 4) [7A2B3599]
Track 12 accurately ripped (confidence 4) [51053A07]
Track 13 not present in database
Track 14 accurately ripped (confidence 4) [9D3AB8B8]
Track 15 accurately ripped (confidence 4) [73691C0F]
Track 16 accurately ripped (confidence 4) [5495D073]
Track 17 accurately ripped (confidence 4) [9FF3A9AC]
Track 18 accurately ripped (confidence 4) [9F277D7A]
Track 19 accurately ripped (confidence 4) [3684B92B]
Track 20 accurately ripped (confidence 4) [2063B369]

19 track(s) accurately ripped
1 track(s) not present in the AccurateRip database

Some tracks could not be verified as accurate

End of status report


foobar2000 1.2.4 / Dynamic Range Meter 1.1.1
log date: 2013-08-02 20:40:16

––––––––––––––––––––––––––––––––––––––––
Analyzed: Deep Purple / Deep Purple In Rock (7243 8 34019 2 5)
––––––––––––––––––––––––––––––––––––––––

DR Peak RMS Duration Track
––––––––––––––––––––––––––––––––––––––––
DR8 -0.06 dB -10.64 dB 5:53 01-Speed King
DR9 0.00 dB -10.80 dB 4:13 02-Bloodsucker
DR9 -0.10 dB -11.19 dB 10:18 03-Child in Time
DR9 -0.02 dB -10.05 dB 7:55 04-Flight of the Rat
DR10 0.00 dB -11.23 dB 3:29 05-Into the Fire
DR11 -0.08 dB -13.16 dB 4:32 06-Living Wreck
DR10 0.00 dB -12.34 dB 7:11 07-Hard Lovin' Man
DR9 -0.09 dB -10.66 dB 3:28 08-Black Night (Original single version)
DR12 -2.76 dB -19.06 dB 0:34 09-Studio Chat
DR10 0.00 dB -10.95 dB 4:16 10-Speed King (Piano version)
DR10 -0.11 dB -17.53 dB 0:27 11-Studio Chat
DR8 -0.07 dB -10.18 dB 3:22 12-Cry Free (Roger Glover remix)
DR19 -19.30 dB -40.65 dB 0:06 13-Studio Chat
DR11 0.00 dB -12.68 dB 2:32 14-Jam Stew (Unreleased instrumental)
DR12 -0.10 dB -16.07 dB 0:41 15-Studio Chat
DR10 0.00 dB -11.70 dB 7:55 16-Flight of the Rat (Roger Glover remix)
DR10 -0.10 dB -14.34 dB 0:32 17-Studio Chat
DR9 -0.09 dB -11.81 dB 5:53 18-Speed King (Roger Glover remix)
DR14 -1.58 dB -28.18 dB 0:24 19-Studio Chat
DR9 0.00 dB -9.82 dB 4:48 20-Black Night (Unedited Roger Glover remix)
––––––––––––––––––––––––––––––––––––––––

Number of tracks: 20
Official DR value: DR10

Samplerate: 44100 Hz
Channels: 2
Bits per sample: 16
Bitrate: 855 kbps
Codec: FLAC

Deep Purple - In Rock (1970) [25th Anniversary Edition] Re-up

All thanks go to the original releaser

Download Deep Purple - In Rock (1970):