Subcategories

Deep Feeling - Deep Feeling (1971) [Reissue 2011]

Posted By: antonyart
Deep Feeling - Deep Feeling (1971) [Reissue 2011]

Deep Feeling - Deep Feeling (1971) [Reissue 2011]
EAC Rip | FLAC (IMG+CUE+LOG) | 262 MB | Complete HQ Scans 600 dpi JPG included | MP3 Lame 320 CBR | 96 MB
Genre: Progressive Rock | RAR 5% Rec. | Label: Flawed Gems (GEM 60) | Uploaded, Depositfiles

An eponymous LP of this very fine, but completely ignored British band was released in non-attractive, but expensive (gatefold & textured) cover in November 1971 by DJM Records - label familiar with the early Elton John titles, but absolutely not with the underground music. This professionally produced album contained an eclectic mix of styles (inc. two ballads and classic ‘Lucille’ clone in heavy blues rock style), but most of the time it was beautifully-arranged, progressive sounds similar to early Genesis, Yes, Procol Harum & Beggars Opera (like lengthy and simply stunning compositions like ‘Welcome To The Soldier’, ‘Classical Gas’ and ‘Guillotine’) with excellent & quite heavy guitar parts, inventive keyboard work & complex vocal harmonies.
Deep Feeling - Deep Feeling (1971) [Reissue 2011]

Tracklist:

01. Welcome For A Soldier 05:57
02. Old Peoples Home 03:49
03. Classical Gas 08:15
04. Guillotine 08:57
05. Country Heir 05:41
06. Lucille 05:31
07. Sweet Dust And Red Wine (Bonus from Spanish LP version) 03:10

Total: 41:20

Exact Audio Copy V1.0 beta 3 from 29. August 2011

EAC extraction logfile from 29. November 2012, 0:11

Deep Feeling / Deep Feeling

Used drive : HL-DT-STDVDRAM GT34N Adapter: 0 ID: 2

Read mode : Secure
Utilize accurate stream : Yes
Defeat audio cache : Yes
Make use of C2 pointers : No

Read offset correction : 103
Overread into Lead-In and Lead-Out : No
Fill up missing offset samples with silence : Yes
Delete leading and trailing silent blocks : No
Null samples used in CRC calculations : Yes
Used interface : Native Win32 interface for Win NT & 2000

Used output format : User Defined Encoder
Selected bitrate : 896 kBit/s
Quality : High
Add ID3 tag : Yes
Command line compressor : C:\Program Files (x86)\Exact Audio Copy\FLAC\FLAC.EXE
Additional command line options : -6 -V -T "ARTIST=%artist%" -T "TITLE=%title%" -T "ALBUM=%albumtitle%" -T "DATE=%year%" -T "TRACKNUMBER=%tracknr%" -T "GENRE=%genre%" -T "COMMENT=%comment%" -T "BAND=%albuminterpret%" -T "ALBUMARTIST=%albuminterpret%" -T "COMPOSER=%composer%" %haslyrics%–tag-from-file=LYRICS="%lyricsfile%"%haslyrics% -T "DISCNUMBER=%cdnumber%" -T "TOTALDISCS=%totalcds%" -T "TOTALTRACKS=%numtracks%" %hascover%–picture="%coverfile%"%hascover% %source% -o %dest%


TOC of the extracted CD

Track | Start | Length | Start sector | End sector
––––––––––––––––––––––––––––-
1 | 0:00.00 | 5:56.64 | 0 | 26763
2 | 5:56.64 | 3:48.71 | 26764 | 43934
3 | 9:45.60 | 8:14.40 | 43935 | 81024
4 | 18:00.25 | 8:57.26 | 81025 | 121325
5 | 26:57.51 | 5:40.66 | 121326 | 146891
6 | 32:38.42 | 5:31.33 | 146892 | 171749
7 | 38:10.00 | 3:10.32 | 171750 | 186031


Range status and errors

Selected range

Filename D:\FLAC\DEEP FEELING -71- Deep Feeling\Deep Feeling - Deep Feeling.wav

Peak level 100.0 %
Extraction speed 2.0 X
Range quality 100.0 %
Test CRC CCE926F4
Copy CRC CCE926F4
Copy OK

No errors occurred


AccurateRip summary

Track 1 not present in database
Track 2 not present in database
Track 3 not present in database
Track 4 not present in database
Track 5 not present in database
Track 6 not present in database
Track 7 not present in database

None of the tracks are present in the AccurateRip database

End of status report

==== Log checksum BFB5A4827172AAFFFD936E5DD060F483CC07545AE5D5452DE92575A53FCBC907 ====

foobar2000 1.1.9 / Dynamic Range Meter 1.1.1
log date: 2013-01-20 21:05:53

––––––––––––––––––––––––––––––––––––––––
Analyzed: Deep Feeling / Deep Feeling
––––––––––––––––––––––––––––––––––––––––

DR Peak RMS Duration Track
––––––––––––––––––––––––––––––––––––––––
DR8 -0.10 dB -10.94 dB 5:57 01-Welcome For A Soldier
DR10 -0.10 dB -12.54 dB 3:49 02-Old Peoples Home
DR10 -0.10 dB -13.00 dB 8:15 03-Classical Gas
DR8 -0.10 dB -12.10 dB 8:57 04-Guillotine
DR10 -0.10 dB -12.18 dB 5:41 05-Country Heir
DR9 -0.10 dB -10.81 dB 5:31 06-Lucille
DR10 0.00 dB -11.07 dB 3:10 07-Sweet Dust And Red Wine
––––––––––––––––––––––––––––––––––––––––

Number of tracks: 7
Official DR value: DR9

Samplerate: 44100 Hz
Channels: 2
Bits per sample: 16
Bitrate: 868 kbps
Codec: FLAC
================================================================================

Deep Feeling was a short-lived obscure British band whose only album, originally released on the DJM label in 1971, has been tragically overlooked among prog fans and collectors. This band has no relation to the UK 60s band of the same name that featured future members of Traffic, Spooky Tooth, and Family. This obscure band, comprised of seasoned studio musicians, recorded just one album, and it is a minor masterpiece. All but one of its 6 tracks exceeding 5 minutes in length, stylistically falls somewhere between UK proto-prog groups (Cressida, Beggars Opera, Spring) and the excellent British bands of the first echelon (early Crimson, Marsupilami, Rare Bird). In fact, several tracks are just as complex as The Court Of The Crimson King or Rare Bird's suite Flight. The album opens with the great Welcome For A Soldier, a complex piece with several tempo shifts and some excellent guitar/keyboard interplay in the middle. The vocal melody is very dreamy and beautiful, evoking parallels with PFM's River Of Life, but the instrumental parts are far more energetic, full of unexpected rhythmic changes and dazzling solos. Next comes the short acoustic Old People's Home, sounding very British, drawing some similarities to the works of Greatest Show On Earth or the calm moments of Gravy Train. Classical Gas, a chart hit for Mason Williams here in the US, is another story - the only entirely instrumental track on the album and without a doubt one of the album’s highlights. This version is simply irresistible, with beautiful guitar passages (a-la Cressida's John Culley) and excellent harpsichord backing. In contrast, Guillotine sounds much heavier, it's obviously not hard-rock, but an accomplished full-blown early heavy progressive piece in the vein of Rare Bird's Hammerhead. The two closing tracks may not seem on par with the rest of the album, but individually they work brilliantly. First up is the fine guitar-driven Country Heir, which could have been recorded by The Kinks, 1967-1968 period; nearly 6 minutes in length and never gets boring. The album’s closer, a homage to the British rock scene of the 1960-1970s, is a powerful rendition of the rock'n'roll classic Lucille, done with scorched guitar leads and the obligatory drum-solo in the middle. It’s a shame such a great early progressive rock work has remained so little known, but it seems DJM did little to promote it and it only had a small original pressing before being deleted. If you dig the early years of progressive rock with excellent and heavy guitar parts, inventive keyboard work, and complex vocal harmonies (some recalling what Queen would later make their trademark) this album is worth your further investigation.

from ebay

Deep Feeling - Deep Feeling (1971) [Reissue 2011]


This CD is from my personal collection. My original rip & my scan work.
>> here is my blog with all my rips <<
Please, do not mirror these links at any web pages.
FLAC + HQ 600 dpi complete scans:

Uploaded

Depositfiles

MP3 + 300 dpi front/back cover scans:

Uploaded

Depositfiles


Password: Ant