Tags
Language
Tags

Deutsche Harmonia Mundi - 100 Great Recordings, Part 1 (2017)

Posted By:
Deutsche Harmonia Mundi - 100 Great Recordings, Part 1 (2017)

Deutsche Harmonia Mundi - 100 Great Recordings, Part 1 (2017)
EAC | FLAC | Image (Cue & Log) ~ 7,18 Gb | Scans included
Classical | Label: Deutsche Harmonia Mundi | # 19075800702 | Recorded: 1960-2013

Since it's founding in Freiburg in 1958, Deutsche Harmonia Mundi has been one of the most important and ambitious labels for period performances. Over decades, globally-acclaimed recordings were created with outstanding musicians. The limited edition "Deutsche Harmonia Mundi: 100 Great Recordings" contains 100 outstanding DHM recordings with some of the most important and best artists in their field: Nuria Rial, Dorothee Mields, Al Ayre Espanol, Hille Perl, Concentus Musicus Wien, Nikolaus Harnoncourt, the Freiburger Barockorchester, Skip Sempé, Capriccio Stravagante, La Petite Bande, Gustav Leonhardt, Andrew Lawrence-King, Frieder Bernius, the Balthasar-Neumann-Chor, Thomas Hengelbrock and many others.

Contents:
CD 1: C.P.E. Bach - Hamburg Symphonies
Freiburger Barockorchester · Thomas Hengelbrock
CD 2: C.P.E. Bach - Magnificat · Concerto
Tölzer Knabenchor · Collegium Aureum · Maier
CD 3. C.P.E. Bach - Sonatas & Fantasias
Andreas Staier
CD 4-5: J.S. Bach - The Art of Fugue
Collegium Aureum
CD 6-7: J.S. Bach - Brandenburg Concertos
La Petite Bande · Sigiswald Kuijken
CD 8 J.S. Bach - Goldberg Variations
Gustav Leonhardt
CD 9-10: J.S. Bach - Complete Lute Works
Konrad Junghänel
CD 11-12: J.S. Bach - St John Passion
La Petite Bande · Kuijken
CD 13: J.S. Bach - Organ Works
Gustav Leonhardt
CD 14-15: J.S. Bach - Four Secular Cantatas
Ameling · Collegium Aureum
CD 16-17: J.S. Bach - Violin Sonatas & Partitas
Sigiswald Kuijken
CD 18-19: Biber - The Rosary Sonatas
Maier · Lehrndorfer · Engel · Junghänel
CD 20: Boccherini - Cello Concertos · Sinfonias
Anner Bylsma · Tafelmusik · Jeanne Lamon
CD 21: Buxtehude - Abendmusik
Capriccio Stravagante · Skip Sempé
CD 22: Buxtehude - Organ Works
Lena Jacobson
CD 23: Caccini - Le Nuove Musiche
Figueras · Smith · Clancy · Savall · Schindler
CD 24: Corelli - Concerti grossi op. 6
Tafelmusik · Lamon
CD 25: Desprez - The Legend of Josquin Desprez
La Sestina


CD 1: C.P.E. Bach - Hamburg Symphonies
Sinfonie C-Dur, Wq 182/3 (H 659)
01 I. Allegro Assai
02 II. Adagio
03 III. Allegretto
Concerto C-moll Für Cembalo Und Orchester, Wq 43/4 (H 474
04 I. Allegro Assai
05 II. Poco Adagio
06 III. Tempo Di Minuetto
07 IV. Allegro Assai
Sinfonie A-Dur, Wq 182/4 (H 660)
08 I. Allegro Ma Non Troppo
09 II. Largo Et Innocemente
10 III. Allegro Assai
Concerto Es-Dur Für Oboe, Streicher Und B.c., Wq 165 (H 468)
11 I. Allegro
12 II. Adagio Ma Non Troppo
13 III. Allegro Ma Non Troppo
Sinfonie H-moll, Wq 182/5 (H 661)
14 I. Allegretto
15 II. Larghetto
16 III. Presto
CD 2: C.P.E. Bach - Magnificat · Concerto
Magnificat, Wq 215
01 Magnificat (chorus)
02 Quia Respexit (soprano)
03 Quia Fecit Mihi Magna (tenor)
04 Et Misericordia (chorus)
05 Fecit Potentiam (bass)
06 Deposuit Potentes (tenor & Alto)
07 Susceptit Israel (alto)
08 Gloria Patri (chorus)
09 Sicut Erat (chorus)
Concerto In B Flat Major, Wq 171
010 I. Allegreto
011 II. Adagio
012 III. Allegro Assai
CD 3. C.P.E. Bach - Sonatas & Fantasias
Sonata In A Minor Wq 49,1
01 Moderato
02 Andante
03 Allegro Assai
04 12 Variationes Auf Die Folie D'Espagne In D Minor Wq 118,9
"Sonata Per Il Cembalo Solo" In G Minor Wq 65,17
05 Allegro (attaca)
06 Adagio (attacca)
07 Allegro Assai
08 "Freye Fantasie" In F Sharp Minor Wq 67
Rondo In C Minor Wq 59,4
09 Allegro
010 Presto (attacca)
011 Adagio (attacca)
12 Andantino
Fantasia In C Major Wq 61,6
13 Presto Di Molto – Andante – Presto Di Molto – Larghetto Sostenuto – Presto Di Molto
CD 4-5: J.S. Bach - The Art of Fugue
Die Kunst Der Fuge, BWV 1080
01 Contrapunctus I A 4
02 Contrapunctus II A 4
03 Contrapunctus III A 4
04 Contrapunctus IV A 4
05 Contrapunctus V A 4
06 Contrapunctus VI A 4
07 Contrapunctus VII A 4
08 Contrapunctus VIII A 3
09 Contrapunctus IX A 4
10 Contrapunctus X A 4
CD 5:
01 Contrapunctus XI A 4
02 Contrapunctus XII A 4
03 Contrapunctus XIII A 3
04 Contrapunctus XIII A 2
05 Contrapunctus XIV
06 Contrapunctus XV
07 Contrapunctus XVI
08 Contrapunctus XVII
09 Contrapunctus XVIII
CD 06-07: J.S. Bach - Brandenburg Concertos
Brandenburg Concerto No. 1 In F Major, BWV 1046
01 I. Allegro
02 II. Adagio
03 III. Allegro
04 IV. Menuetto
Brandenburg Concerto No. 2 In F Major, BWV 1047
05 I. Allegro
06 II. Andante
07 III. Allegro Assai
Brandenburg Concerto No. 3 In G Major, BWV 1048
08 I. Allegro / II. Adagio
09 III. Allegro
CD 07:
Brandenburg Concerto No. 4 In G Major, BWV 1049
01 I. Allegro
02 II. Andante
03 III. Presto
Brandenburg Concerto No. 5 In D Major, BWV 1050
04 I. Allegro
05 II. Affettuoso
06 III. Allegro
Brandenburg Concerto No. 6 In B-flat Major, BWV 1051
07 I. Allegro
08 II. Adagio Ma Non Tanto
09 III. Allegro
CD 8 J.S. Bach - Goldberg Variations
Goldberg-Variationen, BWV 988
01 Aria
02 Variatio 1, A 1 Clav.
03 Variatio 2, A 1 Clav.
04 Variatio 3, A 1 Clav. Canone All'Unisono
05 Variatio 4, A 1 Clav.
06 Variatio 5, A 1 Ovvero 2 Clav.
07 Variatio 6, A 1 Clav. Canone Alla Seconda
08 Variatio 7, A 1 Ovvero 2 Clav. Al Tempo Di Giga
09 Variatio 8, A 2 Clav.
10 Variatio 9, A 1 Clav. Canone Alla Terza
11 Variatio 10, A 1 Clav. Fughetta
12 Variatio 11, A 2 Clav.
13 Variatio 12, Canone All Quarta
14 Variatio 13, A 2 Clav.
15 Variatio 14, A 2 Clav.
16 Variatio 15, A 1 Clav. Canone Alla Quinta, Andante
17 Variatio 16, A 1 Clav. Ouverture
18 Variatio 17, A 2 Clav.
19 Variatio 18, A 1 Clav. Canone Alla Sesta
20 Variatio 19, A 1 Clav.
21 Variatio 20, A 2 Clav.
22 Variatio 21, Canone Alla Settima
23 Variatio 22, A 1 Clav. Alla Breve
24 Variatio 23, A 2 Clav.
25 Variatio 24, A 1 Clav. Canone All'Ottava
26 Variatio 25, A 2 Clav. Adagio
27 Variatio 26, A 2 Clav.
28 Variatio 27, A 2 Clav. Canone Alla Nona
29 Variatio 28, A 2 Clav.
30 Variatio 29, A 1 Ovvero 2 Clav.
31 Variatio 30, A 1 Clav. Quodlibet
32 Aria Da Capo
CD 09-10: J.S. Bach - Complete Lute Works
Suite In G Minor, BWV 995
01 I. Prelude
02 II. Allemande
03 III. Courante
04 IV. Sarabande
05 V. Gavotte I & Gavotte II En Rondeau
06 VI. Gigue
Suite In C Minor, BWV 997
07 I. Prelude
08 II. Fuga
09 III. Sarabande
10 IV. Gigue. Double
11 Präludium In C Minor, BWV 999
12 Fuge In G Minor, BWV 1000
CD 10:
Präludium, Fuge & Allegro In E-flat Major, BWV 998
01 Prelude: Fuga: Allegro
Suite In E Minor, BWV 996
02 I. Praeludio (Passagio: Presto)
03 II. Allemande
04 III. Courante
05 IV. Sarabande
06 V. Bourrée
07 Gigue
Suite In E Major, BWV 1006a
08 I. Prelude
09 II. Loure
10 III. Gavotte En Rondeau
11 IV. Menuett I & Menuett II
12 V. Bourrée
13 VI. Gigue
CD 11-12: J.S. Bach - Johannes-Passion, BWV 245
01 No. 1 Chor: Herr, Unser Herrscher
02 No. 2 A Rezitativ: Jesus Ging Mit Seinen Jüngern
03 No. 2 B Chor: Jesum Vom Nazareth
04 No. 2 C Rezitativ: Jesus Spricht Zu Ihnen
05 No. 2 E Rezitativ: Jesus Antwortete
06 No. 3 Choral: O Große Lieb
07 No. 4 Rezitativ: Auf Daß Das Wort Erfüllet Würde
08 No. 5 Choral: Dein Will Gescheh
09 No. 6 Rezitativ: Die Schar Aber Und Der Oberhauptmann
10 No. 7 Arie (Alt): Von Den Stricken Meiner Sünden
11 No. 8 Rezitativ: Simon Petrus Aber Folgete
12 No. 9 Arie (Soprao): Ich Folge Dir Gleichfalls
13 No. 10 Rezitativ: Derselbige Jünger
14 No. 11 Choral: Wer Hat Dich So Geschlagen
15 No. 12 A Rezitativ: Und Hannas Sandte Ihn Gebunden
16 No. 12 B Chor: Bist Du Nicht Seiner Jünger Einer?
17 No. 12 C Rezitativ: Er Leugnete Aber
18 No. 13 Arie (Tenor): Ach, Mein Sinn
19 No. 14 Choral: Petrus, Der Nicht Denkt Zurück
20 No. 15 Choral: Christus, Der Uns Selig Macht
21 No. 16 A Rezitativ: Da Führeten Sie Jesum
22 No. 16 B Chor: Wäre Dieser Nicht Ein Übeltäter
23 No. 16 C Rezitativ: Da Sprach Pilatus Zu Ihnen
24 No. 16 D Chor: Wir Dürfen Niemand Töten
25 No. 16 E Rezitativ: Auf Daß Erfüllet Würde
26 No. 17 Choral: Ach, Großer König
27 No. 18 A Rezitativ: Da Sprach Pilatus Zu Ihm
28 No. 18 B Chor: Nicht Diesen, Sondern Barrabam!
29 No. 18 C Rezitativ: Barrabas Aber War Ein Mörder
30 No. 19 Arioso (Bass): Betrachte, Meine Seel
31 No. 20 Arai (Tenor): Erwäge, Wie Sein Blutgefärbter Rücken
CD 12:
01 No. 21 A Rezitativ: Und Die Kriegsknechte Flochten
02 No. 21 B Chor: Sei Gegrüsset, Lieber Jüdenkönig!
03 No. 21 C Rezitativ: Und Gaben Ihm Backenstreiche
04 No. 21 D Chor: Kreuzige, Kreuzige!
05 No. 21 E Rezitativ: Pilatus Sprach Zu Ihnen
06 No. 21 F Chor: Wir Haben Ein Gesetz
07 No. 21 G Rezitativ: Da Pilatus Das Wort Hörete
08 No. 22 Choral: Durch Dein Gefängnis
09 No. 23 A Rezitativ: Die Jüden Aber Schrieen
10 No. 23 B Chor: Lässest Du Diesen Los
11 No. 23 C Rezitativ: Da Pilatus Das Wort Hörete
12 No. 23 D Chor: Weg, Weg Mit Dem
13 No. 23 E Rezitativ: Spricht Pilatus Zu Ihnen
14 No. 23 F Chor: Wir Haben Keinen König
15 No. 23 G Rezitativ: Da überantwortete Er Ihn
16 No. 24 Arie (Bass) Mit Chor: Eilt, Ihr Angefochtnen Seelen
17 No. 25 A Rezitativ: Allda Kreuzigten Sie Ihn
18 No. 25 B Chor: Schreibe Nicht: Der Jüden König
19 No. 25 C Rezitativ: Pilatus Antwortet
20 No. 26 Choral: In Meines Herzens Grunde
21 No. 27 A Rezitativ: Dier Kriegsknechte Aber
22 No. 27 B Chor: Lasset Uns Den Nicht Zerteilen
23 No. 27 C Rezitativ: Auf Dass Erfüllet Würde Die Schrift
24 No. 28 Choral: Er Nahm Allez Wohl In Acht
25 No. 29 Rezitativ: Und On Stund An
26 No. 30 Arie (Altus): Es Ist Vollbracht
27 No. 31 Rezitativ: Und Neiget Das Haupt Und Verschied
28 No. 32 Arie (Bass) Mit Chor: Mein Teurer Heiland
29 No. 33 Rezitativ: Und Siehe Da
30 No. 34 Arioso (Tenor): Mein Herz
31 No. 35 Arie (Sopran): Zerfliesse, Meine Herze
32 No. 36 Rezitativ: Die Jüden Aber, Dieweil Es Der Rüsttag War
33 No. 37 Choral: O Hilf Christe
34 No. 38 Rezitativ: Darnach Bat Pilatum
35 No. 39 Chor: Ruht Wohl, Ihr Heiligen Gebeine
36 No. 40 Choral: Ach, Her, Lass Dein Lieb Engelein
CD 13: J.S. Bach - Organ Works
01 Toccata In D Minor, BWV 913
02 Liebster Herr Jesu, Wir Sind Hier, BWV 731
03 Christ Lag In Todesbanden, BWV 718
04 Valet Will Ich Dir Geben, BWV 736
05 Lobt Gott, Ihr Christen Allzugleich, BWV 732
06 Kyrie, Gott Vater In Ewigkeit, BWV 669
07 Christe, Aller Welt Trost, BWV 670
08 Kyrie, Gott Heiliger Geist, BWV 671
09 Allein Gott In Der Höh Sei Ehr, BWV 675
10 Allein Gott In Der Höh Sei Ehr, BWV 677
11 Dies Sind Die Heilgen Zehn Gebot, BWV 679
12 Wir Glauben All An Einen Gott, BWV 681
13 Vater Unser Im Himmelreich, BWV 683
14 Christ, Unser Herr, Zum Jordan Kam, BWV 684
15 Aus Tiefer Not Schrei Ich Zu Dir, BWV 687
16 Jesus Christus Unser Heiland, BWV 689
17 Präludium & Fuge In E Minor, BWV 533
CD 14-15: J.S. Bach - Four Secular Cantatas
Kaffee-Kantate, BWV 211
01 I. Recitativo (Erzähler): Schweigt Stille, Plaudert Nicht
02 II. Aria (Schlendrian): Hat Man Nicht Mit Seinen Kindern
03 III. Recitativo (Schlendrian): Du Böses Kind, Du Loses Mädchen
04 IV. Aria (Lieschen): Ei, Wie Schmeckt Der Coffee Süße
05 V. Recitativo (Schlendrian): Wenn Du Mir Nicht Den Coffee Läßt
06 VI. Aria (Schlendrian): Mädchen, Die Von Harten Sinnen
07 VII. Recitativo (Schlendrian): Nun Folge, Was Dein Vater Spricht
08 VIII. Aria (Lieschen): Heute Noch, Heute Noch
09 IX. Recitativo (Erzähler): Nun Geht Und Sucht Der Alte Schlendrian
10 X. Coro: Die Katze Läßt Das Mausen Nicht
Bauern-Kantate, BWV 212
11 I. Sinfonia
12 II. Duetto: Mer Han En Neue Oberkeet
13 III. Recitativo (Basso): Nu, Miecke, Gib Dein Guschel Immer Her
14 IV. Aria (Soprano): Ach Es Schmeckt Doch Gar Zu Gut
15 V. Recitativo (Basso): Der Herr Ist Gut
16 VI. Aria (Basso): Ach, Herr Schösser, Geht Nicht Gar Zu Schlimm
17 VII. Recitativo (Soprano): Es Bleibt Dabei, Daß Unser Herr Der Beste Sei
18 VIII. Aria (Soprano): Unser Trefflicher Lieber Kammerherr
19 IX. Recitativo (Basso): Er Hilft Uns Allen, Alt Und Jung
20 X. Aria (Soprano): Das Ist Galant
21 XI. Recitativo (Basso): Und Unsre Gnädige Frau Ist Nicht Ein Prinkel Stolz
22 XII. Aria (Basso): Fünfzig Taler Bares Geld
23 XIII. Recitativo (Soprano): Im Ernst Ein Wort!
24 XIV. Aria (Soprano): Klein Zschocher Müsse So Zart Und Süße
25 XV. Recitativo (Basso): Das Ist Zu Klug Vor Dich
26 XVI. Aria (Basso): Es Nehme Zehntausend Ducaten
27 XVII. Recitativo (Soprano): Das Klingt Zu Liederlich
28 XVIII. Aria (Soprano): Gib, Schöne, Viel Söhne Von Artger Gestalt
29 XIX. Recitativo (Basso): Du Hast Wohl Recht
30 XX. Aria (Basso): Dein Wachstum Sei Feste Und Lache Vor Lust
31 XXI. Recitativo (Soprano): Und Damit Sei Es Auch Genug
32 XXII. Recitativo (Basso): Und Daß Ihr's Alle Wißt
33 XXIII. Aria (Soprano): Mein Schatz, Erraten!
34 XXIV. Coro: Wir Gehn Nun, Wo Der Tudelsack
CD 15:
Kantate "Weichet Nur, Betrübte Schatten" / "Hochzeits", BWV 202
01 Weichet Nur, Betrübte Schatten
02 Die Welt Wird Wieder Neu
03 Phöbus Eilt Mit Schnellen Pfeilen
04 Drum Sucht Auch Amor Sein Vergnügen
Wenn Die Frühlingslüfte Streichen
06 Und Dieses Ist Das Glücke
07 Sich üben Im Lieben
08 So Sei Das Band Der Keuschen Liebe
09 Sehet In Zufriedenheit
Kantate "Non Sà Che Sia Dolore", BWV 209
10 Sinfonia
11 Non Sà Che Sia Dolore
12 Parti Pur Col Dolore
13 Tuo Saver Al Tempo E L'età
14 Recitti Gramezza E Pavento
CD 16-17: J.S. Bach - Violin Sonatas & Partitas
Sonata I In G Minor, BWV 1001
01 I. Adagio
02 II. Fuga. Allegro
03 III. Siciliana
04 IV. Presto
Partita I In B Minor, BWV 1002
05 I. Allemanda
06 II. Double
07 III. Correnta
08 IV. Double. Presto
09 V. Sarabande
10 VI. Double
11 VII. Tempo Di Borea
12 VIII. Double
Sonata II In A Minor, BWV 1003
13 I. Grave
14 II. Fuga
15 III. Andante
16 IV. Allegro
CD 17:
Partita In D Minor, BWV 1004
01 I. Allemanda
02 II. Corrente
03 III. Sarabanda
04 IV. Giga
05 V. Ciaccona
Sonata III In C Major, BWV 1005
06 I. Adagio
07 II. Fuga
08 III. Largo
09 IV. Allegro Assai
Partita III In E Major, BWV 1006
10 I. Preludio
11 II. Loure
12 III. Gavotte En Rondeaux
13 IV. Menuet I-II
14 V. Bourée
15 VI. Gigue
CD 18-19: Biber - The Rosary Sonatas
Sonata I D-moll
01 Praeludium
02 Arai Allegro - Varatio
03 Finale
Sonata II A-dur
04 Sonata - Presto
05 Allemande
06 Presto
Sonata III H-mol
07 Sonata - Presto
08 Courante - Double
09 Adagio
Sonata IV D-moll
10 Ciacona
Sonata V A-dur
11 Praeludium - Presto
12 Allemande
13 Gigue
14 Sarabande - Double
Sonata VI C-moll
15 Lamento - Adagio
16 Presto - Adagio
17 Adagio
Sonata VII F-dur
18 Allemande - Variatio
19 Sarabande- Variatio
Sonata VIII B-dur
20 Sonata: Adagio - Presto
21 Gigue - Double 1 (Presto) - Double 2
Sonata IX A-moll
22 Sonata
23 Courante - Double
24 Finale
CD 19:
Sonata X In G Major
01 I. Praeludium
02 II. Aria - Variatio
Sonata XI In G Major
03 I. Sonata - "Surrexit Christus Hodie"
04 II. Adagio
Sonata XII In C Major
05 I. Intrada
06 II. Aria Tubicinum
07 III. Allemande
08 IV. Courante - Double
Sonata XIII In C Major
09 I. Sonata
10 II. Gavotte
11 III. Gigue
12 IV. Sarabande
Sonata XIV In D Major
13 I. Praeludium
14 II. Aria
15 III. Gigue
Sonata XV In C Major
16 I. Sonata
17 II. Aria (Mit 3 Variationen)
18 III. Canzone
19 IV. Sarabande
Sonata XVI In G Minor
20 I. Passacaglia - Violine Solo
CD 20: Boccherini - Cello Concertos · Sinfonias
Concerto For Cello & Orchestra No. 7 In G Major, G. 480
01 I. Allegro
02 II. Adagio
03 III. Allegro
Symphony In B-flat Major, Op. 21 No. 5, G. 497
04 I. Allegro Spiritoso
05 II. Andantino Con Moto
06 III. Allegro Vivace Assai
Concerto For Cello & Orchestra No. 10 In D Major, G. 483
07 I. Allegro Maestoso
08 II. Andante Lentarello
09 III. Allegro E Con Moto
Symphony In D Minor, Op. 12 No. 4, G. 506 "La Casa Del Diavolo"
10 I. Andante Sostenuto - Allegro Assai
11 II. Andantino Con Moto
12 III. Andante Sostenuto - Allegro Assai, Con Moto
CD 21: Buxtehude - Abendmusik
01 Passacaglia, BuxWV 160
02 Sonata In D-moll, Op. 1 No. 6, BuxWV 257
03 Sonata In D-dur, BuxWV 267
04 Sonata In G-moll, Op. 2 No. 3, BuxWV 261
05 Ciaccona, BuxWV 160
06 Sonata In F-dur, F, Op. 1 No. 1, BuxWV 252
07 Sonata In C-dur, BuxWV 266
08 Fried- Und Freudenreiche Hinfart, BuxWV 76
09 Sonata In G-dur, Op. 1 No. 2, BuxWV 253
CD 22: Buxtehude - Organ Works
01 Praeludium In E, BuxWV 143
02 Praeludium In F, BuxWV 145
03 Praeludium In G, BuxWV 150
04 Komm, Heiliger Geist, Herre Gott, BuxWV 199
05 Kommt Her Zu Mir, Spricht Gottes Sohn, BuxWV 139
06 Praeludium In D, BuxWV 139
07 Praeludium In G, BuxWV 149
08 Nun Lob, Mein Seel, Den Herren (Choralzyklus), BuxWV 214, 213.1, 215, 213.2, 213.3
09 Praeludium In D, BuxWV 140
CD 23: Caccini - Le Nuove Musiche
01 Amor Ch'attendi
02 Amor, Io Parto
03 Tu Ch'hai Le Penne
04 Non Ha'l Ciel
05 Alme Luci Beate
06 Vedrô'l Mio Sol
07 Tutto 'l Di Piango
08 Dolcissimo Sospiro
09 Dalle Porta D'oriente
10 Amarilli Mia Bella
11 Movetevi A Pietà
12 Belle Rose Porporine
13 Queste Lagrim' Amore
14 Torna, Deh Torna
15 Con Le Luci D'un Bel Ciglio
CD 24: Corelli - Concerti grossi op. 6
Concerto Grosso In D Major, Op. 6 No. 7
01 I. Vivace - Allegro - Adagio
02 II. Allegro
03 III. Andante Largo - Allegro
04 IV. Vivace
Concerto Grosso In F Major, Op. 6 No. 9
05 I. Preludio: Largo
06 II. Allemanda: Allegro
07 III. Corrente: Vivace
08 IV. Gavotta: Allegro
09 V. Adagio
10 VI. Minuetto: Vivace
Concerto Grosso In C Minor, Op. 6 No. 3
11 I. Largo - Allegro
12 II. Grave
13 III. Vivace
14 IV. Allegro
15 I. Largo - Allegro
16 II. Largo - Allegro
17 III. Largo - Allegro
18 IV. Allegro
Concerto Grosso In B-flat Major, Op. 6 No. 11
19 I. Preludio: Andante Largo
20 II. Allemanda: Allegro
21 III. Adagio - Andante Largo
22 IV. Sarabande: Largo
23 V. Giga: Vivace
Concerto Grosso In G Minor, Op. 6 No. 8 "Christmas Concerto"
24 I. Vivace - Grave
25 II. Allegro
26 III. Adagio - Allegro - Adagio
27 IV. Vivace
28 V. Allegro - Pastorale. Largo
CD 25: Desprez - The Legend of Josquin Desprez
01 Praeter Rerum Seriem, Motet à 4 Voix
02 Benedicta Est Caelorum Regina, Motet à 6 Voix
03 Musae Jovis, Motet à 4 Voix
Missa Benedicta Es à 5 Voix
04 Kyrie
05 Magnificat Secundi Toni Super Praeter Rerum Seriem à 6 Voix
Missa Benedicta Es à 6 Voix
06 Sanctus - Benedictus
07 Agnus Dei
08 Dum Vastos Adriae, Motet à 5 Voix
09 Benedicta Est Caelorum Regina, Motet à 12 Voix
10 Premier Chant Contre Le Cours Des Choses à 14 Voix



Exact Audio Copy V1.5 from 20. February 2020

EAC extraction logfile from 14. October 2020, 14:53

Hans-Peter Westermann, Andreas Staier, Thomas Hengelbrock / DHM - 100 Great recordings (CD1) CPE Bach - Hamburger Sinfonien. Concerti

Used drive : ATAPI iHAS124 F Adapter: 1 ID: 0

Read mode : Secure
Utilize accurate stream : Yes
Defeat audio cache : Yes
Make use of C2 pointers : No

Read offset correction : 6
Overread into Lead-In and Lead-Out : No
Fill up missing offset samples with silence : Yes
Delete leading and trailing silent blocks : No
Null samples used in CRC calculations : Yes
Used interface : Native Win32 interface for Win NT & 2000

Used output format : User Defined Encoder
Selected bitrate : 1024 kBit/s
Quality : High
Add ID3 tag : No
Command line compressor : C:\Program Files (x86)\Exact Audio Copy\FLAC\FLAC.EXE
Additional command line options : -6 -V -T "ARTIST=%artist%" -T "TITLE=%title%" -T "ALBUM=%albumtitle%" -T "DATE=%year%" -T "TRACKNUMBER=%tracknr%" -T "GENRE=%genre%" -T "COMMENT=%comment%" -T "BAND=%albuminterpret%" -T "ALBUMARTIST=%albuminterpret%" -T "COMPOSER=%composer%" %haslyrics%–tag-from-file=LYRICS="%lyricsfile%"%haslyrics% -T "DISCNUMBER=%cdnumber%" -T "TOTALDISCS=%totalcds%" -T "TOTALTRACKS=%numtracks%" %hascover%–picture="%coverfile%"%hascover% %source% -o %dest%


TOC of the extracted CD

Track | Start | Length | Start sector | End sector
––––––––––––––––––––––––––––-
1 | 0:00.00 | 2:46.50 | 0 | 12499
2 | 2:46.50 | 3:25.37 | 12500 | 27911
3 | 6:12.12 | 5:36.50 | 27912 | 53161
4 | 11:48.62 | 3:17.30 | 53162 | 67966
5 | 15:06.17 | 1:55.15 | 67967 | 76606
6 | 17:01.32 | 2:15.50 | 76607 | 86781
7 | 19:17.07 | 4:31.55 | 86782 | 107161
8 | 23:48.62 | 4:31.28 | 107162 | 127514
9 | 28:20.15 | 3:49.10 | 127515 | 144699
10 | 32:09.25 | 4:23.72 | 144700 | 164496
11 | 36:33.22 | 6:31.70 | 164497 | 193891
12 | 43:05.17 | 9:14.43 | 193892 | 235484
13 | 52:19.60 | 7:19.25 | 235485 | 268434
14 | 59:39.10 | 3:58.30 | 268435 | 286314
15 | 63:37.40 | 3:13.37 | 286315 | 300826
16 | 66:51.02 | 3:43.73 | 300827 | 317624


Range status and errors

Selected range

Filename C:\EACRip\DHM - 100 GREAT RECORDINGS (100CDs, DHM) (2017)\CD01 - CPE Bach - Sinfonien, Concerti\DHM - 100 Great recordings (CD1) CPE Bach - Hamburger Sinfonien. Concerti - Thomas Hengelbrock.wav

Peak level 100.0 %
Extraction speed 8.8 X
Range quality 99.9 %
Test CRC E566FB2F
Copy CRC E566FB2F
Copy OK

No errors occurred


AccurateRip summary

Track 1 accurately ripped (confidence 106) [A9169129] (AR v2)
Track 2 accurately ripped (confidence 108) [7022DE37] (AR v2)
Track 3 accurately ripped (confidence 108) [8E09EAB7] (AR v2)
Track 4 accurately ripped (confidence 108) [C48F82D5] (AR v2)
Track 5 accurately ripped (confidence 108) [58FE0B8D] (AR v2)
Track 6 accurately ripped (confidence 108) [4C5C7A7E] (AR v2)
Track 7 accurately ripped (confidence 108) [16D9AD27] (AR v2)
Track 8 accurately ripped (confidence 108) [A445137B] (AR v2)
Track 9 accurately ripped (confidence 108) [0A95F59A] (AR v2)
Track 10 accurately ripped (confidence 108) [2E1BDB2B] (AR v2)
Track 11 accurately ripped (confidence 108) [54DE7D76] (AR v2)
Track 12 accurately ripped (confidence 108) [E3BB76DB] (AR v2)
Track 13 accurately ripped (confidence 108) [0DB0AB3D] (AR v2)
Track 14 accurately ripped (confidence 108) [E72B4B92] (AR v2)
Track 15 accurately ripped (confidence 107) [332CDBD1] (AR v2)
Track 16 accurately ripped (confidence 106) [1119322C] (AR v2)

All tracks accurately ripped

End of status report

–– CUETools DB Plugin V2.1.6

[CTDB TOCID: AHP7Hqdnlb5PTwUZy0KdExCJilk-] found
Submit result: already submitted
Track | CTDB Status
1 | (253/253) Accurately ripped
2 | (253/253) Accurately ripped
3 | (253/253) Accurately ripped
4 | (252/253) Accurately ripped
5 | (253/253) Accurately ripped
6 | (253/253) Accurately ripped
7 | (253/253) Accurately ripped
8 | (253/253) Accurately ripped
9 | (253/253) Accurately ripped
10 | (253/253) Accurately ripped
11 | (252/253) Accurately ripped
12 | (253/253) Accurately ripped
13 | (252/253) Accurately ripped
14 | (253/253) Accurately ripped
15 | (253/253) Accurately ripped
16 | (251/253) Accurately ripped


==== Log checksum D4586F75B48DEF75609D6079DC950E270C9E581756EE7C71B0F61AFB2EBAABAB ====


Exact Audio Copy V1.5 from 20. February 2020

EAC extraction logfile from 14. October 2020, 15:50

Elly Ameling, Maureen lehane, Theo Altmeyer, Roland Hermann; Angelica May / DHM - 100 Great recordings (CD2) CPE Bach - Magnificat. Cello Concerto

Used drive : ATAPI iHAS124 F Adapter: 1 ID: 0

Read mode : Secure
Utilize accurate stream : Yes
Defeat audio cache : Yes
Make use of C2 pointers : No

Read offset correction : 6
Overread into Lead-In and Lead-Out : No
Fill up missing offset samples with silence : Yes
Delete leading and trailing silent blocks : No
Null samples used in CRC calculations : Yes
Used interface : Native Win32 interface for Win NT & 2000

Used output format : User Defined Encoder
Selected bitrate : 1024 kBit/s
Quality : High
Add ID3 tag : No
Command line compressor : C:\Program Files (x86)\Exact Audio Copy\FLAC\FLAC.EXE
Additional command line options : -6 -V -T "ARTIST=%artist%" -T "TITLE=%title%" -T "ALBUM=%albumtitle%" -T "DATE=%year%" -T "TRACKNUMBER=%tracknr%" -T "GENRE=%genre%" -T "COMMENT=%comment%" -T "BAND=%albuminterpret%" -T "ALBUMARTIST=%albuminterpret%" -T "COMPOSER=%composer%" %haslyrics%–tag-from-file=LYRICS="%lyricsfile%"%haslyrics% -T "DISCNUMBER=%cdnumber%" -T "TOTALDISCS=%totalcds%" -T "TOTALTRACKS=%numtracks%" %hascover%–picture="%coverfile%"%hascover% %source% -o %dest%


TOC of the extracted CD

Track | Start | Length | Start sector | End sector
––––––––––––––––––––––––––––-
1 | 0:00.32 | 3:04.40 | 32 | 13871
2 | 3:04.72 | 6:15.20 | 13872 | 42016
3 | 9:20.17 | 4:27.53 | 42017 | 62094
4 | 13:47.70 | 5:25.05 | 62095 | 86474
5 | 19:13.00 | 4:26.25 | 86475 | 106449
6 | 23:39.25 | 6:38.32 | 106450 | 136331
7 | 30:17.57 | 4:17.70 | 136332 | 155676
8 | 34:35.52 | 1:58.55 | 155677 | 164581
9 | 36:34.32 | 6:26.50 | 164582 | 193581
10 | 43:01.07 | 9:49.38 | 193582 | 237794
11 | 52:50.45 | 8:46.25 | 237795 | 277269
12 | 61:36.70 | 6:47.37 | 277270 | 307831


Range status and errors

Selected range

Filename C:\EACRip\DHM - 100 GREAT RECORDINGS (100CDs, DHM) (2017)\CD02 - CPE Bach - Magnificat, Cello Crt\DHM - 100 Great recordings (CD2) CPE Bach - Magnificat. Cello Concerto - Collegium Aureum.wav

Peak level 99.0 %
Extraction speed 3.3 X
Range quality 100.0 %
Test CRC DD2DCAED
Copy CRC DD2DCAED
Copy OK

No errors occurred


AccurateRip summary

Track 1 accurately ripped (confidence 34) [BC1E27B5] (AR v2)
Track 2 accurately ripped (confidence 34) [888A6C62] (AR v2)
Track 3 accurately ripped (confidence 34) [52952128] (AR v2)
Track 4 accurately ripped (confidence 34) [22A89644] (AR v2)
Track 5 accurately ripped (confidence 34) [CB89D442] (AR v2)
Track 6 accurately ripped (confidence 34) [DC44B6F2] (AR v2)
Track 7 accurately ripped (confidence 34) [79637B28] (AR v2)
Track 8 accurately ripped (confidence 34) [F9D2D140] (AR v2)
Track 9 accurately ripped (confidence 34) [EC4D0D35] (AR v2)
Track 10 accurately ripped (confidence 34) [D0854DAC] (AR v2)
Track 11 accurately ripped (confidence 34) [052F7596] (AR v2)
Track 12 accurately ripped (confidence 34) [54419DD6] (AR v2)

All tracks accurately ripped

End of status report

–– CUETools DB Plugin V2.1.6

[CTDB TOCID: uYHmJeTBZA9t_jrLRku8AiYWT_4-] found
Submit result: uYHmJeTBZA9t_jrLRku8AiYWT_4- has been confirmed
Track | CTDB Status
1 | (64/64) Accurately ripped
2 | (64/64) Accurately ripped
3 | (64/64) Accurately ripped
4 | (64/64) Accurately ripped
5 | (64/64) Accurately ripped
6 | (64/64) Accurately ripped
7 | (64/64) Accurately ripped
8 | (64/64) Accurately ripped
9 | (64/64) Accurately ripped
10 | (64/64) Accurately ripped
11 | (64/64) Accurately ripped
12 | (64/64) Accurately ripped


==== Log checksum E738C77E7D6A0B5C935286365F2F7EDCC5D6031789539244E3470D4635EFB8EB ====


Exact Audio Copy V1.5 from 20. February 2020

EAC extraction logfile from 15. October 2020, 11:42

Andreas Staier / DHM - 100 Great recordings (CD3) CPE Bach - Sonatas & Fantasias

Used drive : ATAPI iHAS124 F Adapter: 1 ID: 0

Read mode : Secure
Utilize accurate stream : Yes
Defeat audio cache : Yes
Make use of C2 pointers : No

Read offset correction : 6
Overread into Lead-In and Lead-Out : No
Fill up missing offset samples with silence : Yes
Delete leading and trailing silent blocks : No
Null samples used in CRC calculations : Yes
Used interface : Native Win32 interface for Win NT & 2000

Used output format : User Defined Encoder
Selected bitrate : 1024 kBit/s
Quality : High
Add ID3 tag : No
Command line compressor : C:\Program Files (x86)\Exact Audio Copy\FLAC\FLAC.EXE
Additional command line options : -6 -V -T "ARTIST=%artist%" -T "TITLE=%title%" -T "ALBUM=%albumtitle%" -T "DATE=%year%" -T "TRACKNUMBER=%tracknr%" -T "GENRE=%genre%" -T "COMMENT=%comment%" -T "BAND=%albuminterpret%" -T "ALBUMARTIST=%albuminterpret%" -T "COMPOSER=%composer%" %haslyrics%–tag-from-file=LYRICS="%lyricsfile%"%haslyrics% -T "DISCNUMBER=%cdnumber%" -T "TOTALDISCS=%totalcds%" -T "TOTALTRACKS=%numtracks%" %hascover%–picture="%coverfile%"%hascover% %source% -o %dest%


TOC of the extracted CD

Track | Start | Length | Start sector | End sector
––––––––––––––––––––––––––––-
1 | 0:00.00 | 6:02.05 | 0 | 27154
2 | 6:02.05 | 4:12.35 | 27155 | 46089
3 | 10:14.40 | 3:36.25 | 46090 | 62314
4 | 13:50.65 | 8:43.10 | 62315 | 101549
5 | 22:34.00 | 5:28.72 | 101550 | 126221
6 | 28:02.72 | 4:19.15 | 126222 | 145661
7 | 32:22.12 | 4:16.60 | 145662 | 164921
8 | 36:38.72 | 12:47.00 | 164922 | 222446
9 | 49:25.72 | 5:10.73 | 222447 | 245769
10 | 54:36.70 | 3:27.70 | 245770 | 261364
11 | 58:04.65 | 1:34.37 | 261365 | 268451
12 | 59:39.27 | 3:42.48 | 268452 | 285149
13 | 63:22.00 | 7:12.40 | 285150 | 317589


Range status and errors

Selected range

Filename C:\EACRip\DHM - 100 GREAT RECORDINGS (100CDs, DHM) (2017)\CD03 - CPE Bach - Sonatas & Fantasias\DHM - 100 Great recordings (CD3) CPE Bach - Sonatas & Fantasias - Andreas Staier.wav

Peak level 96.9 %
Extraction speed 9.0 X
Range quality 100.0 %
Test CRC 322A2C9B
Copy CRC 322A2C9B
Copy OK

No errors occurred


AccurateRip summary

Track 1 accurately ripped (confidence 28) [EF109CB8] (AR v2)
Track 2 accurately ripped (confidence 28) [ABDB5496] (AR v2)
Track 3 accurately ripped (confidence 28) [BFFBC794] (AR v2)
Track 4 accurately ripped (confidence 28) [6069C2A1] (AR v2)
Track 5 accurately ripped (confidence 28) [A80B5B17] (AR v2)
Track 6 accurately ripped (confidence 28) [63FD55DB] (AR v2)
Track 7 accurately ripped (confidence 28) [F955C902] (AR v2)
Track 8 accurately ripped (confidence 28) [7152FA01] (AR v2)
Track 9 accurately ripped (confidence 28) [1E6D0773] (AR v2)
Track 10 accurately ripped (confidence 28) [A38106A0] (AR v2)
Track 11 accurately ripped (confidence 28) [A2677022] (AR v2)
Track 12 accurately ripped (confidence 28) [C8F6D2E8] (AR v2)
Track 13 accurately ripped (confidence 28) [930F8063] (AR v2)

All tracks accurately ripped

End of status report

–– CUETools DB Plugin V2.1.6

[CTDB TOCID: YeyGaxGXqc1HipaBWOtkINoZKak-] found
Submit result: YeyGaxGXqc1HipaBWOtkINoZKak- has been confirmed
Track | CTDB Status
1 | (109/109) Accurately ripped
2 | (109/109) Accurately ripped
3 | (109/109) Accurately ripped
4 | (109/109) Accurately ripped
5 | (109/109) Accurately ripped
6 | (109/109) Accurately ripped
7 | (109/109) Accurately ripped
8 | (108/109) Accurately ripped
9 | (109/109) Accurately ripped
10 | (109/109) Accurately ripped
11 | (109/109) Accurately ripped
12 | (109/109) Accurately ripped
13 | (109/109) Accurately ripped


==== Log checksum 3392AFC34177984EFEE6524B8E29C7BE60148803CA631512052D337273166599 ====


Exact Audio Copy V1.5 from 20. February 2020

EAC extraction logfile from 15. October 2020, 12:01

Members of the Collegium Aureum / DHM - 100 Great recordings (CD3) JS Bach - Die Kunst der Fuge (1)

Used drive : ATAPI iHAS124 F Adapter: 1 ID: 0

Read mode : Secure
Utilize accurate stream : Yes
Defeat audio cache : Yes
Make use of C2 pointers : No

Read offset correction : 6
Overread into Lead-In and Lead-Out : No
Fill up missing offset samples with silence : Yes
Delete leading and trailing silent blocks : No
Null samples used in CRC calculations : Yes
Used interface : Native Win32 interface for Win NT & 2000

Used output format : User Defined Encoder
Selected bitrate : 1024 kBit/s
Quality : High
Add ID3 tag : No
Command line compressor : C:\Program Files (x86)\Exact Audio Copy\FLAC\FLAC.EXE
Additional command line options : -6 -V -T "ARTIST=%artist%" -T "TITLE=%title%" -T "ALBUM=%albumtitle%" -T "DATE=%year%" -T "TRACKNUMBER=%tracknr%" -T "GENRE=%genre%" -T "COMMENT=%comment%" -T "BAND=%albuminterpret%" -T "ALBUMARTIST=%albuminterpret%" -T "COMPOSER=%composer%" %haslyrics%–tag-from-file=LYRICS="%lyricsfile%"%haslyrics% -T "DISCNUMBER=%cdnumber%" -T "TOTALDISCS=%totalcds%" -T "TOTALTRACKS=%numtracks%" %hascover%–picture="%coverfile%"%hascover% %source% -o %dest%


TOC of the extracted CD

Track | Start | Length | Start sector | End sector
––––––––––––––––––––––––––––-
1 | 0:00.00 | 3:11.47 | 0 | 14371
2 | 3:11.47 | 3:08.03 | 14372 | 28474
3 | 6:19.50 | 2:51.00 | 28475 | 41299
4 | 9:10.50 | 5:13.50 | 41300 | 64824
5 | 14:24.25 | 3:31.47 | 64825 | 80696
6 | 17:55.72 | 5:00.63 | 80697 | 103259
7 | 22:56.60 | 4:03.40 | 103260 | 121524
8 | 27:00.25 | 7:07.22 | 121525 | 153571
9 | 34:07.47 | 2:40.03 | 153572 | 165574
10 | 36:47.50 | 3:55.50 | 165575 | 183249


Range status and errors

Selected range

Filename C:\EACRip\DHM - 100 GREAT RECORDINGS (100CDs, DHM) (2017)\CD04 - JS Bach - Kunst der Fuge (1)\DHM - 100 Great Recordings (CD3) JS Bach - Die Kunst der Fuge (1) - Members of the Collegium Aureum.wav

Peak level 89.8 %
Extraction speed 7.9 X
Range quality 100.0 %
Test CRC DC942551
Copy CRC DC942551
Copy OK

No errors occurred


AccurateRip summary

Track 1 accurately ripped (confidence 22) [F448DBB3] (AR v2)
Track 2 accurately ripped (confidence 22) [B68A50E2] (AR v2)
Track 3 accurately ripped (confidence 22) [614F37C9] (AR v2)
Track 4 accurately ripped (confidence 22) [3911F99C] (AR v2)
Track 5 accurately ripped (confidence 22) [A75E2956] (AR v2)
Track 6 accurately ripped (confidence 22) [0FED2816] (AR v2)
Track 7 accurately ripped (confidence 22) [65C5E6BE] (AR v2)
Track 8 accurately ripped (confidence 22) [AC94A8DD] (AR v2)
Track 9 accurately ripped (confidence 22) [C2FCA238] (AR v2)
Track 10 accurately ripped (confidence 21) [5CE16CC7] (AR v2)

All tracks accurately ripped

End of status report

–– CUETools DB Plugin V2.1.6

[CTDB TOCID: ggnk6ybDP_S5vusQRaHgiW5PJl0-] found
Submit result: ggnk6ybDP_S5vusQRaHgiW5PJl0- has been confirmed
Track | CTDB Status
1 | (63/63) Accurately ripped
2 | (63/63) Accurately ripped
3 | (63/63) Accurately ripped
4 | (63/63) Accurately ripped
5 | (63/63) Accurately ripped
6 | (63/63) Accurately ripped
7 | (63/63) Accurately ripped
8 | (63/63) Accurately ripped
9 | (63/63) Accurately ripped
10 | (61/63) Accurately ripped, or (2/63) differs in 3540 samples @03:55:36-03:55:39


==== Log checksum 36C612CFE642F43F43564B845FFA083FCCA665B831746487ABC7B227931E3491 ====


Exact Audio Copy V1.5 from 20. February 2020

EAC extraction logfile from 15. October 2020, 12:19

Members of the Collegium Aureum / DHM - 100 Great Recordings (CD5) JS Bach - Die Kunst der Fuge (2)

Used drive : ATAPI iHAS124 F Adapter: 1 ID: 0

Read mode : Secure
Utilize accurate stream : Yes
Defeat audio cache : Yes
Make use of C2 pointers : No

Read offset correction : 6
Overread into Lead-In and Lead-Out : No
Fill up missing offset samples with silence : Yes
Delete leading and trailing silent blocks : No
Null samples used in CRC calculations : Yes
Used interface : Native Win32 interface for Win NT & 2000

Used output format : User Defined Encoder
Selected bitrate : 1024 kBit/s
Quality : High
Add ID3 tag : No
Command line compressor : C:\Program Files (x86)\Exact Audio Copy\FLAC\FLAC.EXE
Additional command line options : -6 -V -T "ARTIST=%artist%" -T "TITLE=%title%" -T "ALBUM=%albumtitle%" -T "DATE=%year%" -T "TRACKNUMBER=%tracknr%" -T "GENRE=%genre%" -T "COMMENT=%comment%" -T "BAND=%albuminterpret%" -T "ALBUMARTIST=%albuminterpret%" -T "COMPOSER=%composer%" %haslyrics%–tag-from-file=LYRICS="%lyricsfile%"%haslyrics% -T "DISCNUMBER=%cdnumber%" -T "TOTALDISCS=%totalcds%" -T "TOTALTRACKS=%numtracks%" %hascover%–picture="%coverfile%"%hascover% %source% -o %dest%


TOC of the extracted CD

Track | Start | Length | Start sector | End sector
––––––––––––––––––––––––––––-
1 | 0:00.00 | 7:04.42 | 0 | 31841
2 | 7:04.42 | 4:06.60 | 31842 | 50351
3 | 11:11.27 | 5:03.68 | 50352 | 73144
4 | 16:15.20 | 5:19.32 | 73145 | 97101
5 | 21:34.52 | 5:35.73 | 97102 | 122299
6 | 27:10.50 | 3:06.70 | 122300 | 136319
7 | 30:17.45 | 6:12.55 | 136320 | 164274
8 | 36:30.25 | 2:21.17 | 164275 | 174866
9 | 38:51.42 | 9:13.65 | 174867 | 216406


Range status and errors

Selected range

Filename C:\EACRip\DHM - 100 GREAT RECORDINGS (100CDs, DHM) (2017)\CD05 - JS Bach - Kunst der Fuge (2)\DHM - 100 Great Recordings (CD5) JS Bach - Die Kunst der Fuge (2) - Members of the Collegium Aureum.wav

Peak level 89.6 %
Extraction speed 7.7 X
Range quality 99.9 %
Test CRC A64E143B
Copy CRC A64E143B
Copy OK

No errors occurred


AccurateRip summary

Track 1 accurately ripped (confidence 18) [A809577C] (AR v2)
Track 2 accurately ripped (confidence 18) [CBFF2923] (AR v2)
Track 3 accurately ripped (confidence 18) [D05E9C02] (AR v2)
Track 4 accurately ripped (confidence 18) [2668B367] (AR v2)
Track 5 accurately ripped (confidence 18) [BC4C2FF4] (AR v2)
Track 6 accurately ripped (confidence 18) [ACBF5CA9] (AR v2)
Track 7 accurately ripped (confidence 18) [FE4B9F3D] (AR v2)
Track 8 accurately ripped (confidence 18) [3D00627A] (AR v2)
Track 9 accurately ripped (confidence 17) [03F4A1DF] (AR v2)

All tracks accurately ripped

End of status report

–– CUETools DB Plugin V2.1.6

[CTDB TOCID: 9WC_ratAHPKfM08D8rFjySFVl1U-] found
Submit result: 9WC_ratAHPKfM08D8rFjySFVl1U- has been confirmed
Track | CTDB Status
1 | (63/63) Accurately ripped
2 | (63/63) Accurately ripped
3 | (63/63) Accurately ripped
4 | (63/63) Accurately ripped
5 | (63/63) Accurately ripped
6 | (63/63) Accurately ripped
7 | (63/63) Accurately ripped
8 | (63/63) Accurately ripped
9 | (62/63) Accurately ripped


==== Log checksum 1F95D8FCA293F5E61A5735EB416AD96C216B14BF8B15CB51EC502E4E2A7DBA3D ====


Deutsche Harmonia Mundi - 100 Great Recordings, Part 1 (2017)

Thanks to the original releaser