Tags
Language
Tags

Diego Fasolis, I Barocchisti - Bach: Suites Nos. 1-4 BWV 1066-1069 (2006)

Posted By: ArlegZ
Diego Fasolis, I Barocchisti - Bach: Suites Nos. 1-4 BWV 1066-1069 (2006)

Diego Fasolis, I Barocchisti - Bach: Suites Nos. 1-4 BWV 1066-1069 (2006)
EAC | FLAC | Image (Cue & Log) ~ 382 Mb | Total time: 70:24 | Scans included
Classical | Label: Arts | # 47649-8 | Recorded: 2006

Diego Fasolis and his ensemble ''I Barocchisti'' have been acclaimed from the press many times as one of the best ensemble for ancient music. Statements like ''Simply a terrific recording'' (American Record Guide for ARTS 47573-2 Bach – Motetes) and ''These two recordings (ARTS 47694-2 Bach Psalm 51 and ARTS 47695-2 Bach Cantatas) confirm the places of Diego Fasolis and the ensemble I Barocchisti among those musicians who really count.'' (Le Monde de la Musique) encouraged us to promptly release another recording from this ensemble.
This time Diego Fasolis and his Ensemble present Bach's Suites Nos. 1 – 4, that the composer himself called ''overtures''. They were used as opening for several events such as celebrations, operas, orchestral concerts or cantatas. The Suites came to existence by a staccato rhythm, the succession of a quick, a slow and again a quick movement and a festive character. To them different dance tunes were added for concerts and dances and thus created suites.

Performer:
I Barocchisti
Conductor - Diego Fasolis

Track List:
Orchestral Suite No. 3 in D major, BWV 1068
01. Ouverture
02. Air
03. Gavotte I & II
04. Bourrée
05. Gigue
Orchestral Suite No. 2 in B minor, BWV 1067
06. Ouverture
07. Rondeau
08. Sarabande
09. Bourrée I & II
10. Polonaise-Double
11. Menuet
12. Badinerie
Orchestral Suite No. 1 in C major, BWV 1066
13. Ouverture
14. Courante
15. Gavotte I & II
16. Forlane
17. Menuet I & II
18. Bourrée I & II
19. Passepied I & II
Orchestral Suite No. 4 in D major, BWV 1069
20. Ouverture
21. Bourrée I & II
22. Gavotte
23. Menuet I & II
24. Réjouissance


Exact Audio Copy V1.3 from 2. September 2016

EAC extraction logfile from 25. July 2018, 13:47

Diego Fasolis, I Barocchisti / Bach - Suites Nos. 1-4

Used drive : HL-DT-STDVDRAM GH24NS95 Adapter: 1 ID: 0

Read mode : Secure
Utilize accurate stream : Yes
Defeat audio cache : Yes
Make use of C2 pointers : No

Read offset correction : 6
Overread into Lead-In and Lead-Out : No
Fill up missing offset samples with silence : Yes
Delete leading and trailing silent blocks : No
Null samples used in CRC calculations : Yes
Used interface : Native Win32 interface for Win NT & 2000

Used output format : User Defined Encoder
Selected bitrate : 128 kBit/s
Quality : High
Add ID3 tag : No
Command line compressor : C:\Program Files\Exact Audio Copy\Flac\flac.exe
Additional command line options : -V -8 -T "Date=%year%" -T "Genre=%genre%" %source%


TOC of the extracted CD

Track | Start | Length | Start sector | End sector
––––––––––––––––––––––––––––-
1 | 0:00.00 | 6:05.63 | 0 | 27437
2 | 6:05.63 | 3:36.60 | 27438 | 43697
3 | 9:42.48 | 3:37.00 | 43698 | 59972
4 | 13:19.48 | 1:08.09 | 59973 | 65081
5 | 14:27.57 | 2:32.21 | 65082 | 76502
6 | 17:00.03 | 5:45.30 | 76503 | 102407
7 | 22:45.33 | 1:57.60 | 102408 | 111242
8 | 24:43.18 | 2:37.00 | 111243 | 123017
9 | 27:20.18 | 1:36.30 | 123018 | 130247
10 | 28:56.48 | 3:01.45 | 130248 | 143867
11 | 31:58.18 | 1:11.45 | 143868 | 149237
12 | 33:09.63 | 1:26.00 | 149238 | 155687
13 | 34:35.63 | 5:21.45 | 155688 | 179807
14 | 39:57.33 | 2:03.54 | 179808 | 189086
15 | 42:01.12 | 2:42.12 | 189087 | 201248
16 | 44:43.24 | 1:07.39 | 201249 | 206312
17 | 45:50.63 | 2:34.15 | 206313 | 217877
18 | 48:25.03 | 2:10.12 | 217878 | 227639
19 | 50:35.15 | 2:37.18 | 227640 | 239432
20 | 53:12.33 | 7:08.45 | 239433 | 271577
21 | 60:21.03 | 2:43.33 | 271578 | 283835
22 | 63:04.36 | 1:51.54 | 283836 | 292214
23 | 64:56.15 | 3:35.00 | 292215 | 308339
24 | 68:31.15 | 2:31.60 | 308340 | 319724


Range status and errors

Selected range

Filename C:\Program Files\Exact Audio Copy\Flac\Bach - Suites Nos. 1-4.wav

Peak level 99.0 %
Extraction speed 8.2 X
Range quality 100.0 %
Test CRC F26FB5DD
Copy CRC F26FB5DD
Copy OK

No errors occurred

End of status report

==== Log checksum 673D5E843AE684DBBA0B3485570A869832D3141F89AAD9273F052F1351F6DDA8 ====

Diego Fasolis, I Barocchisti - Bach: Suites Nos. 1-4 BWV 1066-1069 (2006)