Tags
Language
Tags

Diego Fasolis, I Barocchisti - Handel: Faramondo (2009)

Posted By: ArlegZ
Diego Fasolis, I Barocchisti - Handel: Faramondo (2009)

Diego Fasolis, I Barocchisti - Handel: Faramondo (2009)
EAC | FLAC | Image (Cue & Log) ~ 894 Mb | Total time: 65:59+48:52+51:17 | Scans included
Classical | Label: Virgin Classics | # 2 16611 2 9 | Recorded: 2008

Until it was revived in the late twentieth century, Handel's opera Faramondo was performed just eight times in London in 1738 and then fell into obscurity. According to the conventions of Italian opera of the period, men's roles were often written for women, in spite of the lack of dramatic realism, and the use of castrati was common, so higher voices strongly predominate. Handel wrote the title role, which would have gone to a castrato, usually a male alto, for Cafarelli, who had the range of a mezzo-soprano. This recording is exceptional in its use of countertenors in all the male roles, and it's intriguing to hear together the variety of voice types lumped together as "countertenors"; the singers here are distinctly males altos, mezzo sopranos and sopranos. The early twenty first century is blessed with an abundance of extraordinarily fine countertenors, and the singers on this recording are exceptional, with voices of great tonal fullness and purity, agility, and individuality. Max Emanuel Cencic (mezzo), Philippe Jaroussky (soprano), Xavier Sabata (alto), and Terry Wey in a role originally for a boy treble, deliver clearly differentiated performances, singing with dazzling assurance and vocal beauty. In the more "conventional" roles, soprano Sophie Karthäuser, mezzo Marina de Liso, baritone Fulvio Bettini, and bass In-Sung Sim perform at the same high level of distinction, making this recording a feast for connoisseurs of coloratura singing. Diego Fasolis leads I Baroccchisti in a spirited, beautifully paced performance of great clarity and rhythmic punchiness.
–Stephen Eddins

Performer:
Faramondo - Max Emanuel Cencic
Adolfo - Philippe Jaroussky
Clotilde - Sophie Karthäuser
Rosimonda - Marina de Liso
Gustavo - In-Sung Sim
Gernando - Xavier Sabata
Teobaldo - Fulvio Berttini
Childerico - Terry Wey
Coro della Radio Svizzera
I Barocchisti
Conductor - Diego Fasolis

Track List:
CD1:
01. Ouverture
02. Atto I. Recitativo: Popolo, figlio, in basse note e meste (Gustavo, Adolfo)
03. Accompagnato: Ascolta dagli Elisi, ombra di Sveno (Gustavo)
04. Coro: Pera, pera
05. Recitativo: Mio re, pronta qui vedo (Teobaldo, Gustavo, Adolfo, Clotilde)
06. Aria: Viva sì, che nel mio seno (Gustavo)
07. Recitativo: Siam pur fuori, o mia cara (Adolfo, Clotilde)
08. Aria: Conoscerò, se brami (Clotilde)
09. Recitativo: Perdoni all'amor mio, Sveno trafitto (Adolfo)
10. Aria: Chi ben ama (Adolfo)
11. Recitativo: Finché avrò spirto e vita (Faramondo, Rosimonda, Childerico)
12. Aria: Vanne, vhe più ti miro (Rosimonda)
13. Recitativo: Faramondo infelice! (Faramondo, Gernando)
14. Aria: Rival ti sono (Faramondo)
15. Recitativo: Va pur; prevenirò gli empi disegni (Gernando)
16. Aria: Voglio che mora, sì (Gernando)
17. Recitativo: S'è giusto l'odio mio (Rosimonda)
18. Aria: Sì tornerò a morir (Faramondo)
19. Recitativo: Qual nemico m'han dato (Rosimonda)
20. Aria: Sento che un giusto sdegno (Rosimonda)
21. Recitativo: Sì, Clotilde, il mio seno (Gustavo, Clotilde)
22. Aria: Vado a recar la morte (Teobaldo)
23. Recitativo: Dalla cittade, e solo (Clotilde, Adolfo)
24. Aria: Mi parto lieta (Clotilde)
25. Recitativo: Fra quest'ombre selvagge (Faramondo, Gustavo, Adolfo)
26. Aria: Se ben mi lusinga (Faramondo)
CD2:
01. Atto II. Sinfonia
02. Recitativo: Già udisti i sensi miei, figlia (Gustavo, Rosimonda, Childerico, Gernando)
03. Aria: Sì, l'intendesti, sì (Rosimonda)
04. Recitativo: Sì, sdegna Rosimonda (Gernando)
05. Aria: Non inganar mi, nò (Gernando)
06. Recitativo: Faramondo è pur salvo (Clotilde, Faramondo)
07. Aria: Poi che pria di morire (Faramondo)
08. Recitativo: Rosimonda, il suo duolo (Clotilde, Rosimonda)
09. Aria: Comabttuta da due venti (Clotilde)
10. Recitativo: Faramondo, è in catene (Gustavo, Adolfo)
11. Aria: Se a' piedi tuoi morrò (Adolfo)
12. Recitativo: Signor, umil ti chiedo (Clotilde, Gustavo)
13. Aria: Sol la brama di vendetta (Gustavo)
14. Recitativo: Tentati d'aver l'ingresso (Gernando)
15. Aria: Nella terra, in ciel, nell'onda (Gernando)
16. Recitativo: Childerico? (Rosimonda, Childerico)
17. Duetto: Vado e vivo con la speranza (Faramondo, Rosimonda)
CD3:
01. Atto III. Sinfonia
02. Recitativo: Mi tradiscono i figli (Gustavo, Clotilde, Adolfo)
03. Duetto: Caro, cara, tu m'accendi (Clotilde, Adolfo)
04. Recitativo: Signor, non t'inoltrar (Teobaldo, Gernando, Faramondo)
05. Aria: Così suole a rio vicina (Gernando)
06. Recitativo: Ritorna pur, ritorna (Faramondo)
07. Aria: Voglio che sia l'indegno (Faramondo)
08. Recitativo: D'un oltraggiato re (Gustavo, Teobaldo)
09. Aria: Se ria procella (Adolfo)
10. Recitativo: Non isdegnar, Gustavo (Faramondo, Gustavo, Rosimonda, Clotilde)
11. Aria: Sappi, crudel, ch'io t'amo (Rosimonda)
12. Recitativo: Or vo' lieto alla morte! (Faramondo, Clotilde, Gustavo, Gernando, Adolfo)
13. Aria: Un' aura placida (Clotilde)
14. Recitativo: Reggi il mio braccio già impotente (Gustavo, Tutti)
15. Aria e Coro: Virtù che rende (Faramondo, Coro)


Exact Audio Copy V1.5 from 20. February 2020

EAC extraction logfile from 30. June 2020, 10:30

Diego Fasolis, I Barocchisti / Handel - Faramondo CD1

Used drive : PIONEER DVD-RW DVR-218L Adapter: 1 ID: 1

Read mode : Secure
Utilize accurate stream : Yes
Defeat audio cache : Yes
Make use of C2 pointers : No

Read offset correction : 6
Overread into Lead-In and Lead-Out : No
Fill up missing offset samples with silence : Yes
Delete leading and trailing silent blocks : No
Null samples used in CRC calculations : Yes
Used interface : Native Win32 interface for Win NT & 2000

Used output format : User Defined Encoder
Selected bitrate : 128 kBit/s
Quality : High
Add ID3 tag : No
Command line compressor : C:\Program Files\Exact Audio Copy\Flac\flac.exe
Additional command line options : -V -8 -T "Date=%year%" -T "Genre=%genre%" %source%


TOC of the extracted CD

Track | Start | Length | Start sector | End sector
––––––––––––––––––––––––––––-
1 | 0:00.00 | 5:59.54 | 0 | 26978
2 | 5:59.54 | 0:27.57 | 26979 | 29060
3 | 6:27.36 | 0:46.74 | 29061 | 32584
4 | 7:14.35 | 0:45.28 | 32585 | 35987
5 | 7:59.63 | 1:15.69 | 35988 | 41681
6 | 9:15.57 | 3:29.55 | 41682 | 57411
7 | 12:45.37 | 1:01.02 | 57412 | 61988
8 | 13:46.39 | 3:56.45 | 61989 | 79733
9 | 17:43.09 | 0:15.26 | 79734 | 80884
10 | 17:58.35 | 4:43.36 | 80885 | 102145
11 | 22:41.71 | 2:11.20 | 102146 | 111990
12 | 24:53.16 | 4:03.36 | 111991 | 130251
13 | 28:56.52 | 1:38.00 | 130252 | 137601
14 | 30:34.52 | 3:12.71 | 137602 | 152072
15 | 33:47.48 | 0:22.23 | 152073 | 153745
16 | 34:09.71 | 5:10.16 | 153746 | 177011
17 | 39:20.12 | 3:43.74 | 177012 | 193810
18 | 43:04.11 | 2:45.46 | 193811 | 206231
19 | 45:49.57 | 0:21.43 | 206232 | 207849
20 | 46:11.25 | 3:38.72 | 207850 | 224271
21 | 49:50.22 | 1:10.65 | 224272 | 229586
22 | 51:01.12 | 2:20.25 | 229587 | 240111
23 | 53:21.37 | 0:23.27 | 240112 | 241863
24 | 53:44.64 | 5:42.64 | 241864 | 267577
25 | 59:27.53 | 2:04.61 | 267578 | 276938
26 | 61:32.39 | 4:41.12 | 276939 | 298025


Range status and errors

Selected range

Filename C:\ArlegZ\Handel - Faramondo CD1.wav

Peak level 98.8 %
Extraction speed 1.8 X
Range quality 99.9 %
Test CRC 7D88B5BC
Copy CRC 7D88B5BC
Copy OK

No errors occurred


AccurateRip summary

Track 1 accurately ripped (confidence 31) [70F40AEC] (AR v2)
Track 2 accurately ripped (confidence 30) [73C86DDB] (AR v2)
Track 3 accurately ripped (confidence 30) [C864624A] (AR v2)
Track 4 accurately ripped (confidence 31) [0CD85507] (AR v2)
Track 5 accurately ripped (confidence 30) [53EBAFE6] (AR v2)
Track 6 accurately ripped (confidence 32) [411F3F70] (AR v2)
Track 7 accurately ripped (confidence 30) [771FC1B6] (AR v2)
Track 8 accurately ripped (confidence 31) [6EE2897A] (AR v2)
Track 9 accurately ripped (confidence 30) [3A168B05] (AR v2)
Track 10 accurately ripped (confidence 31) [300E9CD4] (AR v2)
Track 11 accurately ripped (confidence 30) [0092020A] (AR v2)
Track 12 accurately ripped (confidence 30) [7F2DD3EB] (AR v2)
Track 13 accurately ripped (confidence 30) [61F01310] (AR v2)
Track 14 accurately ripped (confidence 31) [D97CE4E7] (AR v2)
Track 15 accurately ripped (confidence 30) [6797BC1B] (AR v2)
Track 16 accurately ripped (confidence 31) [6D543C49] (AR v2)
Track 17 accurately ripped (confidence 30) [07C5487F] (AR v2)
Track 18 accurately ripped (confidence 31) [2913CE39] (AR v2)
Track 19 accurately ripped (confidence 30) [B32F68B2] (AR v2)
Track 20 accurately ripped (confidence 31) [F457AB76] (AR v2)
Track 21 accurately ripped (confidence 30) [019E2CDB] (AR v2)
Track 22 accurately ripped (confidence 31) [20848F73] (AR v2)
Track 23 accurately ripped (confidence 30) [74C90FDA] (AR v2)
Track 24 accurately ripped (confidence 31) [6D817EE4] (AR v2)
Track 25 accurately ripped (confidence 30) [23348FDC] (AR v2)
Track 26 accurately ripped (confidence 31) [9E1510A2] (AR v2)

All tracks accurately ripped

End of status report

–– CUETools DB Plugin V2.1.6

[CTDB TOCID: 6Iwnnje0RSSYFdvq4K.nKIEMQDw-] found
Submit result: 6Iwnnje0RSSYFdvq4K.nKIEMQDw- has been confirmed
Track | CTDB Status
1 | (68/68) Accurately ripped
2 | (68/68) Accurately ripped
3 | (68/68) Accurately ripped
4 | (68/68) Accurately ripped
5 | (68/68) Accurately ripped
6 | (68/68) Accurately ripped
7 | (68/68) Accurately ripped
8 | (68/68) Accurately ripped
9 | (68/68) Accurately ripped
10 | (68/68) Accurately ripped
11 | (68/68) Accurately ripped
12 | (68/68) Accurately ripped
13 | (68/68) Accurately ripped
14 | (68/68) Accurately ripped
15 | (68/68) Accurately ripped
16 | (68/68) Accurately ripped
17 | (67/68) Accurately ripped
18 | (68/68) Accurately ripped
19 | (68/68) Accurately ripped
20 | (67/68) Accurately ripped
21 | (68/68) Accurately ripped
22 | (68/68) Accurately ripped
23 | (68/68) Accurately ripped
24 | (68/68) Accurately ripped
25 | (68/68) Accurately ripped
26 | (68/68) Accurately ripped


==== Log checksum 69C4D24A4109997723ED3FD995D78234149C2028AC0FA01AE6C0C4C37712BE07 ====


Exact Audio Copy V1.5 from 20. February 2020

EAC extraction logfile from 30. June 2020, 11:29

Diego Fasolis, I Barocchisti / Handel - Faramondo CD2

Used drive : PIONEER DVD-RW DVR-218L Adapter: 1 ID: 1

Read mode : Secure
Utilize accurate stream : Yes
Defeat audio cache : Yes
Make use of C2 pointers : No

Read offset correction : 6
Overread into Lead-In and Lead-Out : No
Fill up missing offset samples with silence : Yes
Delete leading and trailing silent blocks : No
Null samples used in CRC calculations : Yes
Used interface : Native Win32 interface for Win NT & 2000

Used output format : User Defined Encoder
Selected bitrate : 128 kBit/s
Quality : High
Add ID3 tag : No
Command line compressor : C:\Program Files\Exact Audio Copy\Flac\flac.exe
Additional command line options : -V -8 -T "Date=%year%" -T "Genre=%genre%" %source%


TOC of the extracted CD

Track | Start | Length | Start sector | End sector
––––––––––––––––––––––––––––-
1 | 0:00.00 | 3:01.13 | 0 | 13587
2 | 3:01.13 | 1:59.11 | 13588 | 22523
3 | 5:00.24 | 3:32.01 | 22524 | 38424
4 | 8:32.25 | 0:25.18 | 38425 | 40317
5 | 8:57.43 | 5:18.39 | 40318 | 64206
6 | 14:16.07 | 2:15.06 | 64207 | 74337
7 | 16:31.13 | 5:46.50 | 74338 | 100337
8 | 22:17.63 | 0:30.44 | 100338 | 102631
9 | 22:48.32 | 6:57.18 | 102632 | 133924
10 | 29:45.50 | 1:10.53 | 133925 | 139227
11 | 30:56.28 | 3:45.65 | 139228 | 156167
12 | 34:42.18 | 1:22.34 | 156168 | 162351
13 | 36:04.52 | 3:31.17 | 162352 | 178193
14 | 39:35.69 | 0:41.36 | 178194 | 181304
15 | 40:17.30 | 4:50.20 | 181305 | 203074
16 | 45:07.50 | 1:35.40 | 203075 | 210239
17 | 46:43.15 | 2:15.56 | 210240 | 220420


Range status and errors

Selected range

Filename C:\ArlegZ\Handel - Faramondo CD2.wav

Peak level 99.8 %
Extraction speed 1.7 X
Range quality 100.0 %
Test CRC EA64BBCD
Copy CRC EA64BBCD
Copy OK

No errors occurred


AccurateRip summary

Track 1 accurately ripped (confidence 32) [E63B090D] (AR v2)
Track 2 accurately ripped (confidence 31) [B1065049] (AR v2)
Track 3 accurately ripped (confidence 31) [89A4E11B] (AR v2)
Track 4 accurately ripped (confidence 31) [69C17A7F] (AR v2)
Track 5 accurately ripped (confidence 32) [3AA95DB1] (AR v2)
Track 6 accurately ripped (confidence 31) [363D43A5] (AR v2)
Track 7 accurately ripped (confidence 32) [270FB2D3] (AR v2)
Track 8 accurately ripped (confidence 31) [7DD11667] (AR v2)
Track 9 accurately ripped (confidence 32) [7643ED1A] (AR v2)
Track 10 accurately ripped (confidence 31) [E0E9305D] (AR v2)
Track 11 accurately ripped (confidence 31) [ED7574DB] (AR v2)
Track 12 accurately ripped (confidence 31) [F5FE78D4] (AR v2)
Track 13 accurately ripped (confidence 32) [0A7EC66D] (AR v2)
Track 14 accurately ripped (confidence 31) [03AF3F58] (AR v2)
Track 15 accurately ripped (confidence 32) [D4EA8432] (AR v2)
Track 16 accurately ripped (confidence 31) [1E55763C] (AR v2)
Track 17 accurately ripped (confidence 32) [C4801747] (AR v2)

All tracks accurately ripped

End of status report

–– CUETools DB Plugin V2.1.6

[CTDB TOCID: g8sGz_PMXxHmL9iGC9wsHJgGBbE-] found
Submit result: g8sGz_PMXxHmL9iGC9wsHJgGBbE- has been confirmed
Track | CTDB Status
1 | (65/66) Accurately ripped
2 | (65/66) Accurately ripped
3 | (65/66) Accurately ripped
4 | (65/66) Accurately ripped
5 | (65/66) Accurately ripped
6 | (65/66) Accurately ripped
7 | (64/66) Accurately ripped
8 | (64/66) Accurately ripped
9 | (63/66) Accurately ripped
10 | (64/66) Accurately ripped
11 | (64/66) Accurately ripped
12 | (64/66) Accurately ripped
13 | (64/66) Accurately ripped
14 | (64/66) Accurately ripped
15 | (64/66) Accurately ripped
16 | (64/66) Accurately ripped
17 | (63/66) Accurately ripped


==== Log checksum E2677BDBE68A277E7A11C1FCC270A465EE585C04AF19C72A2AD30122FAABCFDF ====


Exact Audio Copy V1.5 from 20. February 2020

EAC extraction logfile from 30. June 2020, 12:36

Diego Fasolis, I Barocchisti / Handel - Faramondo CD3

Used drive : PIONEER DVD-RW DVR-218L Adapter: 1 ID: 1

Read mode : Secure
Utilize accurate stream : Yes
Defeat audio cache : Yes
Make use of C2 pointers : No

Read offset correction : 6
Overread into Lead-In and Lead-Out : No
Fill up missing offset samples with silence : Yes
Delete leading and trailing silent blocks : No
Null samples used in CRC calculations : Yes
Used interface : Native Win32 interface for Win NT & 2000

Used output format : User Defined Encoder
Selected bitrate : 128 kBit/s
Quality : High
Add ID3 tag : No
Command line compressor : C:\Program Files\Exact Audio Copy\Flac\flac.exe
Additional command line options : -V -8 -T "Date=%year%" -T "Genre=%genre%" %source%


TOC of the extracted CD

Track | Start | Length | Start sector | End sector
––––––––––––––––––––––––––––-
1 | 0:00.00 | 3:17.59 | 0 | 14833
2 | 3:17.59 | 1:11.11 | 14834 | 20169
3 | 4:28.70 | 5:52.02 | 20170 | 46571
4 | 10:20.72 | 1:04.14 | 46572 | 51385
5 | 11:25.11 | 5:36.10 | 51386 | 76595
6 | 17:01.21 | 0:38.41 | 76596 | 79486
7 | 17:39.62 | 7:27.44 | 79487 | 113055
8 | 25:07.31 | 1:41.25 | 113056 | 120655
9 | 26:48.56 | 4:32.02 | 120656 | 141057
10 | 31:20.58 | 1:52.04 | 141058 | 149461
11 | 33:12.62 | 3:12.40 | 149462 | 163901
12 | 36:25.27 | 1:51.02 | 163902 | 172228
13 | 38:16.29 | 6:33.46 | 172229 | 201749
14 | 44:50.00 | 1:57.58 | 201750 | 210582
15 | 46:47.58 | 4:34.36 | 210583 | 231168


Range status and errors

Selected range

Filename C:\ArlegZ\Handel - Faramondo CD3.wav

Peak level 100.0 %
Extraction speed 1.7 X
Range quality 99.9 %
Test CRC E412A2EA
Copy CRC E412A2EA
Copy OK

No errors occurred


AccurateRip summary

Track 1 accurately ripped (confidence 20) [35B7ECA2] (AR v2)
Track 2 accurately ripped (confidence 19) [16D7B5A3] (AR v2)
Track 3 accurately ripped (confidence 20) [17CF6389] (AR v2)
Track 4 accurately ripped (confidence 19) [DF1DD374] (AR v2)
Track 5 accurately ripped (confidence 20) [17741690] (AR v2)
Track 6 accurately ripped (confidence 19) [AB31B87C] (AR v2)
Track 7 accurately ripped (confidence 20) [232BDF76] (AR v2)
Track 8 accurately ripped (confidence 19) [30323A8A] (AR v2)
Track 9 accurately ripped (confidence 20) [7F9D455C] (AR v2)
Track 10 accurately ripped (confidence 19) [515BBFA4] (AR v2)
Track 11 accurately ripped (confidence 20) [61EA49C0] (AR v2)
Track 12 accurately ripped (confidence 19) [E271EC73] (AR v2)
Track 13 accurately ripped (confidence 20) [B3C738DB] (AR v2)
Track 14 accurately ripped (confidence 19) [C56960C3] (AR v2)
Track 15 accurately ripped (confidence 20) [A926B75E] (AR v2)

All tracks accurately ripped

End of status report

–– CUETools DB Plugin V2.1.6

[CTDB TOCID: 1CGHNE8Ay8kDX0pyWl7KG4Wnj0E-] found
Submit result: 1CGHNE8Ay8kDX0pyWl7KG4Wnj0E- has been confirmed
Track | CTDB Status
1 | (69/70) Accurately ripped
2 | (69/70) Accurately ripped
3 | (69/70) Accurately ripped
4 | (69/70) Accurately ripped
5 | (69/70) Accurately ripped
6 | (69/70) Accurately ripped
7 | (67/70) Accurately ripped
8 | (69/70) Accurately ripped
9 | (69/70) Accurately ripped
10 | (69/70) Accurately ripped
11 | (69/70) Accurately ripped
12 | (69/70) Accurately ripped
13 | (69/70) Accurately ripped
14 | (69/70) Accurately ripped
15 | (69/70) Accurately ripped


==== Log checksum F5A02F8E907156084076612FBACC314996B14370C2D5DEB4BE77B850BCF0E0E3 ====

Diego Fasolis, I Barocchisti - Handel: Faramondo (2009)