Tags
Language
Tags

Direct Sound - Five Voices (1989)

Posted By: basa005
Direct Sound - Five Voices (1989)

Direct Sound - Five Voices (1989)
EAC RIP | APE + CUE + LOG | COVER NO BOOK | RAR FILES (3% recovery) | 163 Mb
Avant-Garde | Intakt CD 015

Direct Sound - Five Voices (1989)

Tracklist:

1. Carles Santos - Tramontana Tremens 2:34
2. Greetje Bijma – Hot Snakes 1:36
3. Greetje Bijma – Electric Ego 2:22
4. Shelley Hirsch – Song 4:28
5. Anna Homler - David Moss – May Na Donska 1:33
6. Carles Santos – Canto 4:23
7. Greetje Bijma – Why? Bye! 1:22
8. David Moss – Together Before Jumping 3:39
9. Anna Homler - Shelley Hirsch - Carles Santos – The Physicist 2:48
10. Anna Homler – Signals 2:37
11. Greetje Bijma - Shelley Hirsch – Long Time No Seen 1:50
12. Shelley Hirsch - David Moss – Edges 2:16
13. David Moss - Greetje Bijma – Two Low 2:53
14. David Moss – That Tempest 4:36

Voice - Anna Homler, Carles Santos, David Moss, Greetje Bijma, Shelley Hirsch

Those with a yen for the outer limits of the human voice take heed, as the international consortium of freaky vocal talent culled together here represent some of the finest exponents of extemporaneous jibber jabber extant. From the U.S., we have the zany N.Y. avant chanteuse Shelley Hirsch and her equally flipped out N.Y. compatriot in extended vocal technique David Moss as well as the L.A.-based Anna Homler, whose approach emerges from her personal zone of invented language generation as heard on her gorgeous Do Ya Sa Di Do CD, which I posted a while back. To that, add the deliriously wigged out Spanish polymath Carles Santos and Holland's Greetje Bijma, though curiously enough for a collectively titled entity, Direct Sound never operate as an actual group. Instead, what we have here is essentially a compilation featuring various solos and duo combinations of these five artists (and in one case, a three-way) and as such, this serves as a perfect point of entry into the land of glossolalia ad absurdum.


Exact Audio Copy V1.0 beta 2 from 29. April 2011

EAC extraction logfile from 27. October 2011, 14:22

Direct Sound / Five Voices

Used drive : TSSTcorpCDDVDW SE-S204N Adapter: 2 ID: 0

Read mode : Secure
Utilize accurate stream : Yes
Defeat audio cache : Yes
Make use of C2 pointers : No

Read offset correction : 6
Overread into Lead-In and Lead-Out : No
Fill up missing offset samples with silence : Yes
Delete leading and trailing silent blocks : No
Null samples used in CRC calculations : No
Used interface : Native Win32 interface for Win NT & 2000

Used output format : Internal WAV Routines
Sample format : 44.100 Hz; 16 Bit; Stereo


TOC of the extracted CD

Track | Start | Length | Start sector | End sector
––––––––––––––––––––––––––––-
1 | 0:00.00 | 2:36.62 | 0 | 11761
2 | 2:36.62 | 1:38.45 | 11762 | 19156
3 | 4:15.32 | 2:24.15 | 19157 | 29971
4 | 6:39.47 | 4:30.15 | 29972 | 50236
5 | 11:09.62 | 1:34.58 | 50237 | 57344
6 | 12:44.45 | 4:31.42 | 57345 | 77711
7 | 17:16.12 | 1:30.50 | 77712 | 84511
8 | 18:46.62 | 3:41.53 | 84512 | 101139
9 | 22:28.40 | 2:50.40 | 101140 | 113929
10 | 25:19.05 | 2:38.40 | 113930 | 125819
11 | 27:57.45 | 1:51.45 | 125820 | 134189
12 | 29:49.15 | 2:17.17 | 134190 | 144481
13 | 32:06.32 | 3:01.08 | 144482 | 158064
14 | 35:07.40 | 4:36.35 | 158065 | 178799


Range status and errors

Selected range

Filename C:\avaxhome\Direct Sound - Five Voices.wav

Peak level 81.6 %
Extraction speed 6.0 X
Range quality 100.0 %
Copy CRC D152CA3C
Copy OK

No errors occurred


AccurateRip summary

Track 1 not present in database
Track 2 not present in database
Track 3 not present in database
Track 4 not present in database
Track 5 not present in database
Track 6 not present in database
Track 7 not present in database
Track 8 not present in database
Track 9 not present in database
Track 10 not present in database
Track 11 not present in database
Track 12 not present in database
Track 13 not present in database
Track 14 not present in database

None of the tracks are present in the AccurateRip database

End of status report

==== Log checksum D239B65513A63CBD8E786A7E9FF9F19454FE63530B78B14D35FBF041FD722C78 ====

megaupload
megaupload
fileserve
wupload

password: basa005