Subcategories
Tags
Language
Tags

Dirk Vermeulen, Prima La Musica - Joseph Haydn: Die Tageszeiten: Symfonieën nr. 6-7-8 Le Matin - Le Midi - Le Soir (1995)

Posted By: ArlegZ
Dirk Vermeulen, Prima La Musica - Joseph Haydn: Die Tageszeiten: Symfonieën nr. 6-7-8 Le Matin - Le Midi - Le Soir (1995)

Dirk Vermeulen, Prima La Musica - Joseph Haydn: Die Tageszeiten: Symfonieën nr. 6-7-8 Le Matin - Le Midi - Le Soir (1995)
EAC | FLAC | Image (Cue & Log) ~ 274 Mb | Total time: 63:52 | Scans included
Classical | Label: Eufoda | 1227 | Recorded: 1995

Hoewel van de 105 symfonieën van Joseph Haydn meestal de Londense uitgevoerd worden, geven zijn eerste werken ook al blijk van natuurtalent. De symfonieën 6 (Le Matin), 7 (Le Midi) en 8 (Le Soir), die samen "Die Tageszeiten" vormen, stralen de vrolijkheid, de frisheid en de muzikale oprechtheid van de jonge Haydn uit. Hoewel Haydn als musicus in dienst van het hof van de graaf Paul Anton Esterházy in Eisenstadt beperkt was in zijn vrijheid, kunnen de "Tageszeiten Symfonieën" zelfs als experimentele muziek bestempeld worden. Informatie van deze strekking is te vinden in het viertalige booklet van de onlangs uitgekomen cd "Die Tageszeiten" van Haydn (1732-1809), uitgevoerd door het Belgische kamerorkest "Prima La Musica" onder leiding van Dirk Vermeulen.
Werken als kapelmeester van een hoforkest, zoals Haydn dat deed van 1761 tot 1790, had zijn nadelen. Dat blijkt uit een bewaard gebleven overeenkomst van veertien punten. Zo moest Haydn zich dagelijks in livrei bij de vorst melden om instructies te vernemen over de te componeren muziek. Verder moest Haydn lesgeven en voor instrumenten en partituren zorgen. Desalniettemin waren de jaren aan het hof vruchtbare dienstjaren. Als chef van het hoforkest kreeg hij de vrijheid te experimenteren en naar eigen inzicht dingen toe te voegen, weg te laten of te wijzigen. Afgezonderd van de buitenwereld, was hij gedwongen daarbij origineel te zijn. Bovendien gaf de vorst, die zeer tevreden was over Haydns werk, hem de mogelijkheid het orkestje van vijf musici uit te breiden.
In zijn "Tageszeiten", de eerste opdracht van de vorst, maakte Haydn dankbaar gebruik van de geboden vrijheden. De blazers krijgen meestal een solistische rol in het symfonische werk, maar Haydn had in zijn orkest ook een uitstekende violist (Tomasini) en cellist (zijn vriend Weigl), voor wie hij virtuoze solopassages schreef (enkele vioolpassages in de 6e symfonie en een cellopassage in de finale van de 7e symfonie). De symfonieën 6 en 8 zijn eigenlijk verkapte concerti grossi, vanwege de soli/tutti-wisselingen in de menuetten. De zeer vocaal gedachte fragmenten in het begin van het adagio van de 6e symfonie en de plotselinge harmonische veranderingen in het adagio van de 7e doen al sterk aan de Mannheimer Schule denken. Van harte aanbevolen.
–Tera Hofman

Performer:
Prima La Musica
Dirk Vermeulen, conductor

Track List:
Symphonie Nr. 6 'Le Matin', D groot (Hob. I:6)
01. Adagio - allegro
02. Adagio - andante
03. Menuetto - trio
04. Finale: allegro
Symphonie Nr. 7 'Le Midi', C groot (Hob. I:7)
05. Adagio - allegro
06. Recitativo - adagio
07. Menuetto - trio
08. Finale: allegro
Symphonie Nr. 8 'Le Soir', G groot (Hob. I:8)
09. Allegro molto
10. Andante
11. Menuetto - trio
12. Presto: La Tempesta


Exact Audio Copy V1.5 from 20. February 2020

EAC extraction logfile from 18. March 2020, 11:36

Franz Josef Haydn / Die Tageszeiten

Used drive : HL-DT-STDVDRAM GH24NSD5 Adapter: 1 ID: 0

Read mode : Secure
Utilize accurate stream : Yes
Defeat audio cache : Yes
Make use of C2 pointers : No

Read offset correction : 6
Overread into Lead-In and Lead-Out : No
Fill up missing offset samples with silence : Yes
Delete leading and trailing silent blocks : No
Null samples used in CRC calculations : Yes
Used interface : Native Win32 interface for Win NT & 2000

Used output format : User Defined Encoder
Selected bitrate : 896 kBit/s
Quality : High
Add ID3 tag : No
Command line compressor : C:\Program Files (x86)\Exact Audio Copy\FLAC\FLAC.EXE
Additional command line options : -6 -V -T "ARTIST=%artist%" -T "TITLE=%title%" -T "ALBUM=%albumtitle%" -T "DATE=%year%" -T "TRACKNUMBER=%tracknr%" -T "GENRE=%genre%" -T "COMMENT=%comment%" -T "BAND=%albuminterpret%" -T "ALBUMARTIST=%albuminterpret%" -T "COMPOSER=%composer%" %haslyrics%–tag-from-file=LYRICS="%lyricsfile%"%haslyrics% -T "DISCNUMBER=%cdnumber%" -T "TOTALDISCS=%totalcds%" -T "TOTALTRACKS=%numtracks%" %hascover%–picture="%coverfile%"%hascover% %source% -o %dest%


TOC of the extracted CD

Track | Start | Length | Start sector | End sector
––––––––––––––––––––––––––––-
1 | 0:00.00 | 5:45.60 | 0 | 25934
2 | 5:45.60 | 6:22.12 | 25935 | 54596
3 | 12:07.72 | 4:02.73 | 54597 | 72819
4 | 16:10.70 | 4:35.27 | 72820 | 93471
5 | 20:46.22 | 7:20.28 | 93472 | 126499
6 | 28:06.50 | 8:08.05 | 126500 | 163104
7 | 36:14.55 | 3:34.37 | 163105 | 179191
8 | 39:49.17 | 3:55.50 | 179192 | 196866
9 | 43:44.67 | 5:39.23 | 196867 | 222314
10 | 49:24.15 | 6:34.60 | 222315 | 251924
11 | 55:59.00 | 3:18.57 | 251925 | 266831
12 | 59:17.57 | 4:35.05 | 266832 | 287461


Range status and errors

Selected range

Filename I:\Rips\Haydn J - Die Tageszeiten - Vermeulen\Franz Josef Haydn - Die Tageszeiten.wav

Peak level 88.1 %
Extraction speed 7.3 X
Range quality 100.0 %
Test CRC F2CC1B37
Copy CRC F2CC1B37
Copy OK

No errors occurred


AccurateRip summary

Track 1 accurately ripped (confidence 3) [3FCBCA58] (AR v2)
Track 2 accurately ripped (confidence 3) [4445936C] (AR v2)
Track 3 accurately ripped (confidence 3) [528FF369] (AR v2)
Track 4 accurately ripped (confidence 3) [50C32D19] (AR v2)
Track 5 accurately ripped (confidence 3) [CF8ED9C5] (AR v2)
Track 6 accurately ripped (confidence 3) [1D4F0ABA] (AR v2)
Track 7 accurately ripped (confidence 3) [9B0D0914] (AR v2)
Track 8 accurately ripped (confidence 3) [EE486C29] (AR v2)
Track 9 accurately ripped (confidence 3) [FD5FAADB] (AR v2)
Track 10 accurately ripped (confidence 3) [3443C3D4] (AR v2)
Track 11 accurately ripped (confidence 3) [7DC09F54] (AR v2)
Track 12 accurately ripped (confidence 3) [58F2C967] (AR v2)

All tracks accurately ripped

End of status report

–– CUETools DB Plugin V2.1.6

[CTDB TOCID: .yl9oWANUu.9PDKVyTCdGiZHUaM-] found
Submit result: .yl9oWANUu.9PDKVyTCdGiZHUaM- has been confirmed
Track | CTDB Status
1 | (1/1) Accurately ripped
2 | (1/1) Accurately ripped
3 | (1/1) Accurately ripped
4 | (1/1) Accurately ripped
5 | (1/1) Accurately ripped
6 | (1/1) Accurately ripped
7 | (1/1) Accurately ripped
8 | (1/1) Accurately ripped
9 | (1/1) Accurately ripped
10 | (1/1) Accurately ripped
11 | (1/1) Accurately ripped
12 | (1/1) Accurately ripped


==== Log checksum 441A1D810FA56B01E6083F2BAD1C5A4B2B53AB304438C466C11DF76644B9DC50 ====

Dirk Vermeulen, Prima La Musica - Joseph Haydn: Die Tageszeiten: Symfonieën nr. 6-7-8 Le Matin - Le Midi - Le Soir (1995)

Thanks to the original releaser