Subcategories

VA - Disco Not Disco (3 volumes) (2000-2008)

Posted By: mook45
VA - Disco Not Disco (3 volumes) (2000-2008)

VA - Disco Not Disco (3 volumes) (2000-2008)
EAC | FLAC IMG,CUE+LOG = 539/421/522MB | MP3@320 = 194/160/196MB | 400 dpi Scans
Leftfield Disco | Label: Strut - CD008/020/32 | FSo/FSe


The full three volumes of one of the most inspired series of dance comps. Disco or not, this is some of the coolest music ever made.

VA - Disco Not Disco (3 volumes) (2000-2008)


Volume One (2000)

Track listing
1 Yoko Ono - Walking On Thin Ice (1981 Re-edit) 7:20
2 Liquid Liquid - Cavern 5:21
3 Loose Joints - Tell You (Today) (Vocal) 7:02
4 Ian Dury & The Seven Seas Players - Spasticus Autisticus (Version) 6:59
5 Material - Over And Over (Long Version) 5:39
6 Was (Not Was) - Wheel Me Out 7:09
7 Dinosaur - Kiss Me Again (Original Edit) 6:52
8 Don Cherry - I Walk 3:13
9 Common Sense - Voices Inside My Head 6:33
10 Indian Ocean - Tree House / School Bell (Part 1) 6:56
11 Steve Miller Band - Macho City 16:26

Exact Audio Copy V0.99 prebeta 5 from 4. May 2009

EAC extraction logfile from 17. December 2009, 1:30

Various / Disco Not Disco

Used drive : HP DVD Writer 1040r Adapter: 1 ID: 0

Read mode : Secure
Utilize accurate stream : Yes
Defeat audio cache : Yes
Make use of C2 pointers : No

Read offset correction : 6
Overread into Lead-In and Lead-Out : No
Fill up missing offset samples with silence : Yes
Delete leading and trailing silent blocks : No
Null samples used in CRC calculations : Yes
Used interface : Native Win32 interface for Win NT & 2000

Used output format : User Defined Encoder
Selected bitrate : 1024 kBit/s
Quality : High
Add ID3 tag : No
Command line compressor : C:\Program Files\Exact Audio Copy\FLAC\FLAC.EXE
Additional command line options : -5 -V -T "ARTIST=%a" -T "TITLE=%t" -T "ALBUM=%g" -T "DATE=%y" -T "TRACKNUMBER=%n" -T "GENRE=%m" -T "COMMENT=EAC Flac 1.1.2 -5" %s


TOC of the extracted CD

Track | Start | Length | Start sector | End sector
––––––––––––––––––––––––––––-
1 | 0:00.00 | 7:20.62 | 0 | 33061
2 | 7:20.62 | 5:21.65 | 33062 | 57201
3 | 12:42.52 | 7:02.73 | 57202 | 88924
4 | 19:45.50 | 6:59.05 | 88925 | 120354
5 | 26:44.55 | 5:39.12 | 120355 | 145791
6 | 32:23.67 | 7:09.48 | 145792 | 178014
7 | 39:33.40 | 6:53.22 | 178015 | 209011
8 | 46:26.62 | 3:13.15 | 209012 | 223501
9 | 49:40.02 | 6:33.18 | 223502 | 252994
10 | 56:13.20 | 6:56.00 | 252995 | 284194
11 | 63:09.20 | 16:24.00 | 284195 | 357994


Range status and errors

Selected range

Filename C:\Users\Mike3\Desktop\Disco Not Disco (Flac)\Various - Disco Not Disco.wav

Peak level 97.7 %
Range quality 100.0 %
Copy CRC A2182179
Copy OK

No errors occurred


AccurateRip summary

Track 1 accurately ripped (confidence 2) [E650C768]
Track 2 accurately ripped (confidence 2) [D1EF0328]
Track 3 accurately ripped (confidence 2) [E6282B6C]
Track 4 accurately ripped (confidence 2) [7BC85B42]
Track 5 accurately ripped (confidence 2) [6503149E]
Track 6 accurately ripped (confidence 2) [88490B0D]
Track 7 accurately ripped (confidence 2) [DA0487D0]
Track 8 accurately ripped (confidence 2) [95140BA2]
Track 9 accurately ripped (confidence 2) [85C23E00]
Track 10 accurately ripped (confidence 2) [C4980A95]
Track 11 accurately ripped (confidence 2) [0DA8609C]

All tracks accurately ripped

End of status report

Files
Lame 320 Kbps = 194MB
Flac 927 Kbps = 539MB

VA - Disco Not Disco (3 volumes) (2000-2008)


Volume Two (2002)

Track listing
1 Laid Back - White Horse 5:44
2 Alexander Robotnick - Problèmes D'Amour 6:44
3 Yello - Bostich (Extended Dance Version) 4:34
4 Can - Aspectacle (Holger Czukay Edit) 2:48
5 Material - Ciguri 6:23
6 Connie Case - Get Down 7:15
7 The Coach House Rhythm Section - Timewarp 5:51
8 Arthur Russell - Let's Go Swimming 7:51
9 Barry Waite & Ltd. - Sting (Part One) 3:11
10 Lex - Fourteen Days 5:49
11 The Clash - This is Radio Clash 4:11

Exact Audio Copy V0.99 prebeta 5 from 4. May 2009

EAC extraction logfile from 17. December 2009, 0:04

Various / Disco Not Disco 2

Used drive : HP DVD Writer 1040r Adapter: 1 ID: 0

Read mode : Secure
Utilize accurate stream : Yes
Defeat audio cache : Yes
Make use of C2 pointers : No

Read offset correction : 6
Overread into Lead-In and Lead-Out : No
Fill up missing offset samples with silence : Yes
Delete leading and trailing silent blocks : No
Null samples used in CRC calculations : Yes
Used interface : Native Win32 interface for Win NT & 2000

Used output format : User Defined Encoder
Selected bitrate : 1024 kBit/s
Quality : High
Add ID3 tag : No
Command line compressor : C:\Program Files\Exact Audio Copy\FLAC\FLAC.EXE
Additional command line options : -5 -V -T "ARTIST=%a" -T "TITLE=%t" -T "ALBUM=%g" -T "DATE=%y" -T "TRACKNUMBER=%n" -T "GENRE=%m" -T "COMMENT=EAC Flac 1.1.2 -5" %s


TOC of the extracted CD

Track | Start | Length | Start sector | End sector
––––––––––––––––––––––––––––-
1 | 0:00.00 | 5:45.70 | 0 | 25944
2 | 5:45.70 | 6:45.61 | 25945 | 56380
3 | 12:31.56 | 4:36.01 | 56381 | 77081
4 | 17:07.57 | 2:50.05 | 77082 | 89836
5 | 19:57.62 | 6:25.53 | 89837 | 118764
6 | 26:23.40 | 7:17.53 | 118765 | 151592
7 | 33:41.18 | 5:53.52 | 151593 | 178119
8 | 39:34.70 | 7:53.38 | 178120 | 213632
9 | 47:28.33 | 3:13.61 | 213633 | 228168
10 | 50:42.19 | 5:51.59 | 228169 | 254552
11 | 56:34.03 | 4:11.55 | 254553 | 273432


Range status and errors

Selected range

Filename C:\Users\Mike3\Desktop\Disco Not Disco 2 (Flac)\Various - Disco Not Disco 2.wav

Peak level 98.9 %
Range quality 100.0 %
Copy CRC 7FA71E09
Copy OK

No errors occurred


AccurateRip summary

Track 1 accurately ripped (confidence 1) [415C2FF9]
Track 2 accurately ripped (confidence 1) [6F5324AF]
Track 3 accurately ripped (confidence 1) [3C5EAC02]
Track 4 accurately ripped (confidence 1) [BA742B2C]
Track 5 accurately ripped (confidence 1) [5885705B]
Track 6 accurately ripped (confidence 1) [13AB4E02]
Track 7 accurately ripped (confidence 1) [4F9A2042]
Track 8 accurately ripped (confidence 1) [ED8139B4]
Track 9 accurately ripped (confidence 1) [F154F78C]
Track 10 accurately ripped (confidence 1) [9E8614CE]
Track 11 accurately ripped (confidence 1) [6E3BED83]

All tracks accurately ripped

End of status report

Files
Lame 320 Kbps = 160MB
Flac 921 Kbps = 421MB

VA - Disco Not Disco (3 volumes) (2000-2008)


Volume Three (2008)

Track listing
1 Vivien Goldman - Launderette 3:47
2 Delta 5 - Mind Your Own Business 3:13
3 Shriekback - My Spine Is The Bassline (1982 12" Edit) 4:02
4 Konk - Your Life 7:25
5 Isotope - Crunch Cake 3:55
6 James White & The Blacks - Contort Yourself (August Darnell Remix) 6:15
7 Quando Quango - Love Tempo (Remix) 7:55
8 Yellow Magic Orchestra - Seoul Music 4:47
9 Material - Don't Lose Control 4:19
10 Kazino - Binary 3:57
11 Liaisons Dangereuses - Los Niños Del Parque (12" Mix) 5:04
12 A Number Of Names - Sharevari (Instrumental) 6:18
13 Six Sed Red - Beat 'Em Right 6:24
14 Maximum Joy - Silent Street / Silent Dub 7:42

Exact Audio Copy V0.99 prebeta 5 from 4. May 2009

EAC extraction logfile from 17. December 2009, 23:23

Various / Disco Not Disco (Vol.3)

Used drive : HP DVD Writer 1040r Adapter: 1 ID: 0

Read mode : Secure
Utilize accurate stream : Yes
Defeat audio cache : Yes
Make use of C2 pointers : No

Read offset correction : 6
Overread into Lead-In and Lead-Out : No
Fill up missing offset samples with silence : Yes
Delete leading and trailing silent blocks : No
Null samples used in CRC calculations : Yes
Used interface : Native Win32 interface for Win NT & 2000

Used output format : User Defined Encoder
Selected bitrate : 1024 kBit/s
Quality : High
Add ID3 tag : No
Command line compressor : C:\Program Files\Exact Audio Copy\FLAC\FLAC.EXE
Additional command line options : -5 -V -T "ARTIST=%a" -T "TITLE=%t" -T "ALBUM=%g" -T "DATE=%y" -T "TRACKNUMBER=%n" -T "GENRE=%m" -T "COMMENT=EAC Flac 1.1.2 -5" %s


TOC of the extracted CD

Track | Start | Length | Start sector | End sector
––––––––––––––––––––––––––––-
1 | 0:00.00 | 3:47.16 | 0 | 17040
2 | 3:47.16 | 3:13.27 | 17041 | 31542
3 | 7:00.43 | 4:01.52 | 31543 | 49669
4 | 11:02.20 | 7:25.31 | 49670 | 83075
5 | 18:27.51 | 3:55.09 | 83076 | 100709
6 | 22:22.60 | 6:15.09 | 100710 | 128843
7 | 28:37.69 | 7:55.07 | 128844 | 164475
8 | 36:33.01 | 4:19.65 | 164476 | 183965
9 | 40:52.66 | 4:19.34 | 183966 | 203424
10 | 45:12.25 | 3:56.42 | 203425 | 221166
11 | 49:08.67 | 5:03.68 | 221167 | 243959
12 | 54:12.60 | 6:17.39 | 243960 | 272273
13 | 60:30.24 | 6:24.24 | 272274 | 301097
14 | 66:54.48 | 7:54.45 | 301098 | 336692


Range status and errors

Selected range

Filename C:\Users\Mike3\Desktop\Disco Not Disco 3 (Flac)\Various - Disco Not Disco (Vol.3).wav

Peak level 100.0 %
Range quality 99.9 %
Copy CRC 4E89FB97
Copy OK

No errors occurred


AccurateRip summary

Track 1 accurately ripped (confidence 3) [EB74DD91]
Track 2 accurately ripped (confidence 3) [E9DC8D3B]
Track 3 accurately ripped (confidence 3) [E771F3C1]
Track 4 accurately ripped (confidence 3) [4724D78E]
Track 5 accurately ripped (confidence 3) [39BFA906]
Track 6 accurately ripped (confidence 3) [9DA9986C]
Track 7 accurately ripped (confidence 3) [163BFD31]
Track 8 accurately ripped (confidence 3) [36E71136]
Track 9 accurately ripped (confidence 3) [E52E8E70]
Track 10 accurately ripped (confidence 3) [1BCBFA3E]
Track 11 accurately ripped (confidence 3) [CC7A4629]
Track 12 accurately ripped (confidence 3) [2650E91C]
Track 13 accurately ripped (confidence 3) [F9CF0403]
Track 14 accurately ripped (confidence 2) [28F10A88]

All tracks accurately ripped

End of status report

Files
Lame 320 Kbps = 196MB
Flac 929 Kbps = 522MB

Vol. 1

320

http://www.filesonic.com/file/26743087/DnD_3_.rar

Flac

http://www.filesonic.com/file/26743121/DnD_F_.part1.rar
http://www.filesonic.com/file/26743069/DnD_F_.part2.rar
http://www.filesonic.com/file/26743033/DnD_F_.part3.rar

Vol. 2

320


http://www.filesonic.com/file/26743009/DnD2_3_.rar

Flac

http://www.filesonic.com/file/26743103/DnD2_F_.part1.rar
http://www.filesonic.com/file/26743065/DnD2_F_.part2.rar
http://www.filesonic.com/file/26743003/DnD2_F_.part3.rar

Vol. 3

320

http://www.filesonic.com/file/26743085/DnD3_3_.rar

Flac

http://www.filesonic.com/file/26743025/DnD3_F_.part1.rar
http://www.filesonic.com/file/26743123/DnD3_F_.part2.rar
http://www.filesonic.com/file/26743015/DnD3_F_.part3.rar


Vol. 1

320

http://www.fileserve.com/file/3wDsRgn/DnD_3_.rar

Flac

http://www.fileserve.com/file/qt5B4BW/DnD_F_.part1.rar
http://www.fileserve.com/file/yx7eqvc/DnD_F_.part2.rar
http://www.fileserve.com/file/cT2FAr4/DnD_F_.part3.rar

Vol. 2

320

http://www.fileserve.com/file/uc27gHC/DnD2_3_.rar

Flac

http://www.fileserve.com/file/YDmqqED/DnD2_F_.part1.rar
http://www.fileserve.com/file/Mfmuzbp/DnD2_F_.part2.rar
http://www.fileserve.com/file/bT6MMSY/DnD2_F_.part3.rar

Vol. 3

320

http://www.fileserve.com/file/jjvecCG/DnD3_3_.rar

Flac

http://www.fileserve.com/file/Cp7b6YS/DnD3_F_.part1.rar
http://www.fileserve.com/file/mb8hpqY/DnD3_F_.part2.rar
http://www.fileserve.com/file/J9YXpYG/DnD3_F_.part3.rar

No mirrors