Tags
Language
Tags

Django Reinhardt - Djangology: The Gipsy Genius (1990) (Repost)

Posted By: gribovar
Django Reinhardt - Djangology: The Gipsy Genius (1990) (Repost)

Django Reinhardt - Djangology: The Gipsy Genius (1990)
EAC Rip | FLAC (image+.cue+log) - 298 MB | Covers (10 MB) included
Genre: Gypsy Jazz, Swing | RAR 3% Rec. | Label: Giants Of Jazz (CD 53002)

The compilation of Django tunes - 24 in total, including "Minor Swing", "Nuages", and his works with singers.
Django Reinhardt was the first hugely influential jazz figure to emerge from Europe - and he remains the most influential European to this day, with possible competition from Joe Zawinul, George Shearing, John McLaughlin, his old cohort Stephane Grappelli and a bare handful of others. A free-spirited gypsy, Reinhardt wasn't the most reliable person in the world, frequently wandering off into the countryside on a whim. Yet Reinhardt came up with a unique way of propelling the humble acoustic guitar into the front line of a jazz combo in the days before amplification became widespread. He would spin joyous, arcing, marvelously inflected solos above the thrumming base of two rhythm guitars and a bass, with Grappelli's elegantly gliding violin serving as the perfect foil. His harmonic concepts were startling for their time - making a direct impression upon Charlie Christian and Les Paul, among others - and he was an energizing rhythm guitarist behind Grappelli, pushing their groups into a higher gear. Not only did Reinhardt put his stamp upon jazz, his string band music also had an impact upon the parallel development of Western swing, which eventually fed into the wellspring of what is now called country music. Although he could not read music, with Grappelli and on his own, Reinhardt composed several winsome, highly original tunes like "Daphne," "Nuages" and "Manoir de Mes Reves," as well as mad swingers like "Minor Swing" and the ode to his record label of the '30s, "Stomping at Decca." As the late Ralph Gleason said about Django's recordings, "They were European and they were French and they were still jazz."
Tracklist:
01. After You've Gone
02. Limehouse Blues
03. Nagasaki
04. Honeysuckle Rose
05. Crazy Rhythm
06. Out Of Nowhere
07. Chicago
08. Georgia On My Mind
09. Shine
10. Sweet Georgia Brown
11. Bugle Call Rag
12. Between The Devil And The Deep Blue Sea
13. Exactly Like You
14. Charleston
15. You're Driving Me Crazy
16. Farewell Blues
17. I Got Rhythm
18. I Know That You Know
19. Ain't Misbehavin'
20. Rose Room
21. Japanese Sandman
22. Swing Guitars
23. Minor Swing
24. Nuages

Total time: 01:10:54

Exact Audio Copy V0.99 prebeta 4 from 23. January 2008

EAC extraction logfile from 17. March 2009, 22:56

Django Reinhardt / The Gipsy Genius

Used drive : PIONEER DVD-RW DVR-111D Adapter: 1 ID: 0

Read mode : Secure
Utilize accurate stream : Yes
Defeat audio cache : Yes
Make use of C2 pointers : No

Read offset correction : 48
Overread into Lead-In and Lead-Out : No
Fill up missing offset samples with silence : Yes
Delete leading and trailing silent blocks : No
Null samples used in CRC calculations : Yes
Used interface : Native Win32 interface for Win NT & 2000

Used output format : Internal WAV Routines
Sample format : 44.100 Hz; 16 Bit; Stereo


TOC of the extracted CD

Track | Start | Length | Start sector | End sector
––––––––––––––––––––––––––––-
1 | 0:00.00 | 3:10.22 | 0 | 14271
2 | 3:10.22 | 2:48.52 | 14272 | 26923
3 | 5:58.74 | 2:52.54 | 26924 | 39877
4 | 8:51.53 | 2:49.29 | 39878 | 52581
5 | 11:41.07 | 3:04.28 | 52582 | 66409
6 | 14:45.35 | 3:20.45 | 66410 | 81454
7 | 18:06.05 | 3:29.22 | 81455 | 97151
8 | 21:35.27 | 3:17.59 | 97152 | 111985
9 | 24:53.11 | 2:58.53 | 111986 | 125388
10 | 27:51.64 | 3:04.43 | 125389 | 139231
11 | 30:56.32 | 2:45.12 | 139232 | 151618
12 | 33:41.44 | 2:59.04 | 151619 | 165047
13 | 36:40.48 | 2:32.25 | 165048 | 176472
14 | 39:12.73 | 2:54.66 | 176473 | 189588
15 | 42:07.64 | 2:56.11 | 189589 | 202799
16 | 45:04.00 | 3:16.33 | 202800 | 217532
17 | 48:20.33 | 2:15.56 | 217533 | 227713
18 | 50:36.14 | 2:34.37 | 227714 | 239300
19 | 53:10.51 | 2:56.09 | 239301 | 252509
20 | 56:06.60 | 2:46.68 | 252510 | 265027
21 | 58:53.53 | 2:59.45 | 265028 | 278497
22 | 61:53.23 | 2:27.62 | 278498 | 289584
23 | 64:21.10 | 3:17.53 | 289585 | 304412
24 | 67:38.63 | 3:15.37 | 304413 | 319074


Range status and errors

Selected range

Filename D:\!CD\new SCANs\53002\Django Reinhardt - The Gipsy Genius.wav

Peak level 99.6 %
Range quality 99.9 %
Test CRC 65C13DF6
Copy CRC 65C13DF6
Copy OK

No errors occurred


AccurateRip summary

Track 1 not present in database
Track 2 not present in database
Track 3 not present in database
Track 4 not present in database
Track 5 not present in database
Track 6 not present in database
Track 7 not present in database
Track 8 not present in database
Track 9 not present in database
Track 10 not present in database
Track 11 not present in database
Track 12 not present in database
Track 13 not present in database
Track 14 not present in database
Track 15 not present in database
Track 16 not present in database
Track 17 not present in database
Track 18 not present in database
Track 19 not present in database
Track 20 not present in database
Track 21 not present in database
Track 22 not present in database
Track 23 not present in database
Track 24 not present in database

None of the tracks are present in the AccurateRip database

End of status report

[CUETools log; Date: 01.02.2018 3:04:14; Version: 2.1.4]
[CTDB TOCID: otJ8M.TLXfnBbrlWhE5kA5_m.cA-] found.
Track | CTDB Status
1 | (17/17) Accurately ripped
2 | (17/17) Accurately ripped
3 | (17/17) Accurately ripped
4 | (17/17) Accurately ripped
5 | (17/17) Accurately ripped
6 | (17/17) Accurately ripped
7 | (17/17) Accurately ripped
8 | (17/17) Accurately ripped
9 | (17/17) Accurately ripped
10 | (17/17) Accurately ripped
11 | (17/17) Accurately ripped
12 | (17/17) Accurately ripped
13 | (17/17) Accurately ripped
14 | (17/17) Accurately ripped
15 | (17/17) Accurately ripped
16 | (17/17) Accurately ripped
17 | (17/17) Accurately ripped
18 | (17/17) Accurately ripped
19 | (17/17) Accurately ripped
20 | (17/17) Accurately ripped
21 | (17/17) Accurately ripped
22 | (17/17) Accurately ripped
23 | (17/17) Accurately ripped
24 | (17/17) Accurately ripped
[AccurateRip ID: 003d8fa2-0426640b-5a109e18] found.
Track [ CRC | V2 ] Status
01 [40e9e91a|8c47afd6] (2+5/7) Accurately ripped
02 [49f1b07a|9ef47936] (2+5/7) Accurately ripped
03 [6d270a83|76035b88] (2+5/7) Accurately ripped
04 [3bc0e4be|2c8cd764] (2+5/7) Accurately ripped
05 [baee032b|0ab8e799] (2+5/7) Accurately ripped
06 [21719cd8|3388362f] (2+5/7) Accurately ripped
07 [b3255f32|129ad55e] (2+5/7) Accurately ripped
08 [c2fe5f80|b379232e] (2+5/7) Accurately ripped
09 [ceddf93e|745a4248] (2+5/7) Accurately ripped
10 [dbf5c0a2|f89e47c1] (2+5/7) Accurately ripped
11 [173b786d|268484da] (2+5/7) Accurately ripped
12 [8956fa57|d046b91e] (2+5/7) Accurately ripped
13 [542969ee|f85e8bb4] (2+5/7) Accurately ripped
14 [519acc7f|5c01c7e3] (2+5/7) Accurately ripped
15 [e8eb768a|b3e956e3] (2+5/7) Accurately ripped
16 [4be71082|1aa559c8] (2+5/7) Accurately ripped
17 [58cb13cb|3ee42767] (2+5/7) Accurately ripped
18 [2f53eb34|bcfe0a37] (2+5/7) Accurately ripped
19 [297cb3a9|a8b071a9] (2+5/7) Accurately ripped
20 [308f3c2c|0e390acb] (2+5/7) Accurately ripped
21 [e76baa7a|86eea4fc] (2+5/7) Accurately ripped
22 [83a7bb52|27ffef5d] (2+5/7) Accurately ripped
23 [d8a63c67|db06ad3c] (2+5/7) Accurately ripped
24 [7c69acd4|cd05f1b5] (2+5/7) Accurately ripped

Track Peak [ CRC32 ] [W/O NULL] [ LOG ]
– 99,6 [65C13DF6] [F04F12D4] CRC32
01 65,5 [8967422B] [3485DDA6]
02 58,0 [5761FE7C] [9A1F39FD]
03 76,9 [6E5A16F9] [7637BCB2]
04 64,0 [CD1AA7AA] [6A34A2BB]
05 68,0 [7494CC15] [D2194123]
06 60,5 [F36675FE] [11024C34]
07 76,0 [48B42F2D] [5751DE0E]
08 74,4 [60D746E0] [8ED5424E]
09 83,6 [5DE67C89] [09001634]
10 68,3 [90D172E8] [117596C6]
11 68,7 [F45661E7] [7DD51E0F]
12 66,0 [47A350A1] [DEEFC254]
13 92,8 [43929206] [3D30A526]
14 76,8 [A960AC8E] [1323CA26]
15 84,7 [CFC8597F] [2BB5D487]
16 86,6 [C9C623F7] [6E2F7128]
17 74,9 [6CC963C1] [01D33406]
18 71,0 [DBF34C1F] [AF107337]
19 87,6 [6994B879] [4666D2C5]
20 87,1 [085F6461] [4C593CAD]
21 76,0 [017DE685] [0AFDA401]
22 71,7 [5EF0FBE2] [2A9A5FC0]
23 99,6 [FA408260] [B131C9EF]
24 84,5 [8229EDD8] [58F5744B]

Thanks to the original releaser