Tags
Language
Tags

Dominique Visse, Ensemble Clément Janequin - Josquin Desprez: Le Septiesme Livre de Chansons (2020)

Posted By: ArlegZ
Dominique Visse, Ensemble Clément Janequin - Josquin Desprez: Le Septiesme Livre de Chansons (2020)

Dominique Visse, Ensemble Clément Janequin - Josquin Desprez: Le Septiesme Livre de Chansons (2020)
EAC | FLAC | Image (Cue & Log) ~ 317 Mb | Total time: 61:14 | Scans included
Classical | Label: Ricercar | # RIC423 | Recorded: 2020

2021 sees the 500th anniversary of the death of Josquin Des Pres, the most celebrated composer of his day. Dominique Visse and the Ensemble Clément Janequin are recording a selection of his chansons from one of the most important editions of his works, Tylman Susato’s Septiesme livre de Chansons published in 1545. This edition bear witness to the diversity of Josquin’s chanson writing, but above all to the melancholy and sorrow so present in his works, and is clearly a tribute, as is also evident in the two Déplorations on his death, Musæ Jovis by Nicolas Gombert and O mors inevitabilis by Hieronymus Vinders. This recording endeavours to present a Josquin legacy, a post mortem illustration of his chanson œuvre, in remembrance of his musical genius. It has also enabled Dominique Visse and the Ensemble Clément Janequin to express their profound musical passion for this major Renaissance composer who has accompanied them for more than 40 years.

Performer:
Ensemble Clément Janequin
Dominique Visse, direction

Track List:
01. Regretz sans fin il me fault endurer
02. Allegez moy doulce plaisant brunette
03. Douleur me bat
04. Je me complains de mon amy
05. Cueur langoreulx
06. Mille regretz (Luis de Narvaez )
07. Musæ Jovis (Nicolas Gombert)
08. Petite Camusette a la mort mavez mis
09. Plus nulz regretz
10. Du mien amant
11. La Bernardina
12. Faulte dargent
13. Baises moy ma doulce’ amye
14. Ma bouche rit et mon cueur pleure
15. O mors inevitabilis (Hieronymus Vinders)
16. Mille regretz (Hans Newsidler)
17. Parfons regretz et lamentable joye
18. Tenez moy en voz bras
19. Nymphes des bois


Exact Audio Copy V1.3 from 2. September 2016

EAC extraction logfile from 9. March 2021, 20:49

Ensemble Clément Janequin / Desprez - Le Septiesme Livre de Chansons

Used drive : HL-DT-STDVDRAM GH24NS95 Adapter: 1 ID: 0

Read mode : Secure
Utilize accurate stream : Yes
Defeat audio cache : Yes
Make use of C2 pointers : No

Read offset correction : 6
Overread into Lead-In and Lead-Out : No
Fill up missing offset samples with silence : Yes
Delete leading and trailing silent blocks : No
Null samples used in CRC calculations : Yes
Used interface : Native Win32 interface for Win NT & 2000

Used output format : User Defined Encoder
Selected bitrate : 768 kBit/s
Quality : High
Add ID3 tag : No
Command line compressor : C:\Program Files\Exact Audio Copy\FLAC\FLAC.EXE
Additional command line options : -6 -V -T "ARTIST=%artist%" -T "TITLE=%title%" -T "ALBUM=%albumtitle%" -T "DATE=%year%" -T "TRACKNUMBER=%tracknr%" -T "GENRE=%genre%" -T "COMMENT=%comment%" -T "BAND=%albuminterpret%" -T "ALBUMARTIST=%albuminterpret%" -T "COMPOSER=%composer%" %haslyrics%–tag-from-file=LYRICS="%lyricsfile%"%haslyrics% -T "DISCNUMBER=%cdnumber%" -T "TOTALDISCS=%totalcds%" -T "TOTALTRACKS=%numtracks%" %hascover%–picture="%coverfile%"%hascover% %source% -o %dest%


TOC of the extracted CD

Track | Start | Length | Start sector | End sector
––––––––––––––––––––––––––––-
1 | 0:00.00 | 6:04.15 | 0 | 27314
2 | 6:04.15 | 1:59.72 | 27315 | 36311
3 | 8:04.12 | 3:11.01 | 36312 | 50637
4 | 11:15.13 | 1:38.62 | 50638 | 58049
5 | 12:54.00 | 2:46.18 | 58050 | 70517
6 | 15:40.18 | 3:10.45 | 70518 | 84812
7 | 18:50.63 | 5:41.52 | 84813 | 110439
8 | 24:32.40 | 1:02.17 | 110440 | 115106
9 | 25:34.57 | 3:12.09 | 115107 | 129515
10 | 28:46.66 | 6:00.44 | 129516 | 156559
11 | 34:47.35 | 2:39.61 | 156560 | 168545
12 | 37:27.21 | 1:52.71 | 168546 | 177016
13 | 39:20.17 | 3:40.34 | 177017 | 193550
14 | 43:00.51 | 2:57.36 | 193551 | 206861
15 | 45:58.12 | 2:54.20 | 206862 | 219931
16 | 48:52.32 | 2:59.71 | 219932 | 233427
17 | 51:52.28 | 2:26.51 | 233428 | 244428
18 | 54:19.04 | 1:57.27 | 244429 | 253230
19 | 56:16.31 | 4:21.41 | 253231 | 272846


Range status and errors

Selected range

Filename C:\Program Files\Exact Audio Copy\Desprez - Le Septiesme Livre de Chansons.wav

Peak level 100.0 %
Extraction speed 1.9 X
Range quality 100.0 %
Test CRC 73E53448
Copy CRC 73E53448
Copy OK

No errors occurred

End of status report

Dominique Visse, Ensemble Clément Janequin - Josquin Desprez: Le Septiesme Livre de Chansons (2020)

Thanks to the original releaser