Subcategories
Tags
Language
Tags

Dominique Visse, Ensemble Clément Janequin - Une fête chez Rabelais: Chansons et pièces instrumentales (1994)

Posted By: ArlegZ
Dominique Visse, Ensemble Clément Janequin - Une fête chez Rabelais: Chansons et pièces instrumentales (1994)

Dominique Visse, Ensemble Clément Janequin - Une fête chez Rabelais: Chansons et pièces instrumentales (1994)
EAC | FLAC | Image (Cue & Log) ~ 276 Mb | Total time: 58:33 | Scans included
Classical | Label: Harmonia Mundi | # HMX 290840 | Recorded: 1994

Founded in Paris in 1978 the Ensemble Clément Janequin devotes itself principally to the secular and religious music of the Renaissance. Its interpretations of the Parisian chanson are regarded as authoritative, and recordings of works like Les Cris de Paris, Le Chant des Oyseaulx, Fricassée Parisienne and La Chasse have brought back to life one of golden ages of French music. Now available to a wide audience, the music of Janequin, Sermisy, Anthoine de Bertrand, Costeley, Roland de Lassus and Claude Le Jeune illustrates the contrasts in which the Renaissance took such delight…

Performer:
Ensemble Clément Janequin
Dominique Visse, direction

Track List:
Loyset Compère (c1445-1518)
01. Nous sommes de l'ordre de Saint Babouyn
Pierre de la Rue (c1452-1518)
02. Autant en emporte le vent
Claudin de Sermisy (1490-1562)
03. Je ne menge point de porc
Nicolaas Gombert (1495-1560)
04. Mille regres
Ninot le Petit (?-1520)
05. N'as tu poinct mis ton hault bonnet
Claudin de Sermisy (1490-1562)
06. Vien tost
Anonymous
07. La Brosse
Guiard (16th)
08. Or oiez les introites de taverne
Pierre Vermont (c1495-1533)
09. Ce n'est pas trop
Adrian Willaert (1490-1562)
10. Dessus le marché darras
Nicolaas Gombert (1495-1560)
11. Puisqu'ainsi est
Anonymous
12. Las il n'a nul mal
Claudin de Sermisy (1490-1562)
13. Las je m'y plains
Nicolaas Gombert (1495-1560)
14. Je prens congies
Jacobus Clemens non Papa (1510-1555)
15. Une fillette bien gorriere
16. Imcessament suis triste et doloreux
Hesdin (?-1538)
17. Ramonez moy ma cheminée
Jacobus Clemens non Papa (1510-1555)
18. Du laid tetin
Josquin des Prez (c1450-1521)
19. Scaramella va alla guerra
Anonymous
20. Pavane et Gagliarde de "La Guerre"
Matthaeus Pipelare (c1450-c1515)
21. Fors seulement
Pierre Certon (c1510-1572)
22. La, la, la, je ne l'ose dire
Henry Fresneau (fl1538-54)
23. Souspir d'amours, pensée de plaisir
Gabriel Coste (c1500-c1540)
24. Celle fillette a qui le tetin point
Nicolaas Gombert (1495-1560)
25. A bien grant tort
Henry Fresneau (fl1538-54)
26. La Fricassée


Exact Audio Copy V1.3 from 2. September 2016

EAC extraction logfile from 18. October 2019, 12:52

Ensemble Clément Janequin, Dominique Visse / Un Fête chez Rabelais

Used drive : MATSHITADVD-RAM UJ8G6 Adapter: 1 ID: 0

Read mode : Secure
Utilize accurate stream : Yes
Defeat audio cache : Yes
Make use of C2 pointers : No

Read offset correction : 103
Overread into Lead-In and Lead-Out : No
Fill up missing offset samples with silence : Yes
Delete leading and trailing silent blocks : No
Null samples used in CRC calculations : Yes
Used interface : Native Win32 interface for Win NT & 2000

Used output format : User Defined Encoder
Selected bitrate : 1024 kBit/s
Quality : High
Add ID3 tag : No
Command line compressor : C:\Program Files (x86)\Exact Audio Copy\FLAC\FLAC.EXE
Additional command line options : -6 -V -T "ARTIST=%artist%" -T "TITLE=%title%" -T "ALBUM=%albumtitle%" -T "DATE=%year%" -T "TRACKNUMBER=%tracknr%" -T "GENRE=%genre%" -T "COMMENT=%comment%" -T "BAND=%albuminterpret%" -T "ALBUMARTIST=%albuminterpret%" -T "COMPOSER=%composer%" %haslyrics%–tag-from-file=LYRICS="%lyricsfile%"%haslyrics% -T "DISCNUMBER=%cdnumber%" -T "TOTALDISCS=%totalcds%" -T "TOTALTRACKS=%numtracks%" %hascover%–picture="%coverfile%"%hascover% %source% -o %dest%


TOC of the extracted CD

Track | Start | Length | Start sector | End sector
––––––––––––––––––––––––––––-
1 | 0:00.32 | 3:51.38 | 32 | 17394
2 | 3:51.70 | 1:24.37 | 17395 | 23731
3 | 5:16.32 | 1:02.40 | 23732 | 28421
4 | 6:18.72 | 3:10.48 | 28422 | 42719
5 | 9:29.45 | 2:00.25 | 42720 | 51744
6 | 11:29.70 | 2:45.27 | 51745 | 64146
7 | 14:15.22 | 2:22.30 | 64147 | 74826
8 | 16:37.52 | 2:20.50 | 74827 | 85376
9 | 18:58.27 | 1:44.33 | 85377 | 93209
10 | 20:42.60 | 1:09.70 | 93210 | 98454
11 | 21:52.55 | 3:11.40 | 98455 | 112819
12 | 25:04.20 | 2:25.17 | 112820 | 123711
13 | 27:29.37 | 1:38.45 | 123712 | 131106
14 | 29:08.07 | 4:10.18 | 131107 | 149874
15 | 33:18.25 | 0:52.07 | 149875 | 153781
16 | 34:10.32 | 3:41.05 | 153782 | 170361
17 | 37:51.37 | 1:18.65 | 170362 | 176276
18 | 39:10.27 | 3:01.10 | 176277 | 189861
19 | 42:11.37 | 1:08.35 | 189862 | 194996
20 | 43:19.72 | 4:11.63 | 194997 | 213884
21 | 47:31.60 | 2:23.22 | 213885 | 224631
22 | 49:55.07 | 0:57.68 | 224632 | 228974
23 | 50:53.00 | 1:37.12 | 228975 | 236261
24 | 52:30.12 | 1:27.45 | 236262 | 242831
25 | 53:57.57 | 2:15.23 | 242832 | 252979
26 | 56:13.05 | 2:21.02 | 252980 | 263556


Range status and errors

Selected range

Filename F:\RAT\0 - Attente UP\Ensemble Clément Janequin, Dominique Visse - Un Fête chez Rabelais.wav

Peak level 96.0 %
Extraction speed 2.4 X
Range quality 99.9 %
Test CRC 6EB2AA0A
Copy CRC 6EB2AA0A
Copy OK

No errors occurred


AccurateRip summary

Track 1 accurately ripped (confidence 9) [9D758858] (AR v2)
Track 2 accurately ripped (confidence 9) [E2E75359] (AR v2)
Track 3 accurately ripped (confidence 9) [10150C04] (AR v2)
Track 4 accurately ripped (confidence 9) [0D1E5226] (AR v2)
Track 5 accurately ripped (confidence 9) [8D11AAD7] (AR v2)
Track 6 accurately ripped (confidence 9) [130F29A5] (AR v2)
Track 7 accurately ripped (confidence 9) [627E3885] (AR v2)
Track 8 accurately ripped (confidence 9) [823461D1] (AR v2)
Track 9 accurately ripped (confidence 9) [EFE78A78] (AR v2)
Track 10 accurately ripped (confidence 9) [30A7A5D5] (AR v2)
Track 11 accurately ripped (confidence 9) [C34E1141] (AR v2)
Track 12 accurately ripped (confidence 9) [D06FC2A4] (AR v2)
Track 13 accurately ripped (confidence 9) [B3F7D050] (AR v2)
Track 14 accurately ripped (confidence 9) [BC43A427] (AR v2)
Track 15 accurately ripped (confidence 9) [31605ABD] (AR v2)
Track 16 accurately ripped (confidence 9) [5ECD4B1F] (AR v2)
Track 17 accurately ripped (confidence 9) [3BE733A3] (AR v2)
Track 18 accurately ripped (confidence 9) [C68BB3C4] (AR v2)
Track 19 accurately ripped (confidence 9) [C9158F4A] (AR v2)
Track 20 accurately ripped (confidence 9) [B214DB24] (AR v2)
Track 21 accurately ripped (confidence 9) [7B7AA5AE] (AR v2)
Track 22 accurately ripped (confidence 9) [F9AF97AC] (AR v2)
Track 23 accurately ripped (confidence 9) [51805D04] (AR v2)
Track 24 accurately ripped (confidence 9) [3CE66D93] (AR v2)
Track 25 accurately ripped (confidence 9) [0F0063E1] (AR v2)
Track 26 accurately ripped (confidence 9) [A628A95E] (AR v2)

All tracks accurately ripped

End of status report

–– CUETools DB Plugin V2.1.6

[CTDB TOCID: vQkad_49h.gLv9MXTurX1KQNRVk-] found
Submit result: vQkad_49h.gLv9MXTurX1KQNRVk- has been confirmed
Track | CTDB Status
1 | (21/21) Accurately ripped
2 | (21/21) Accurately ripped
3 | (21/21) Accurately ripped
4 | (21/21) Accurately ripped
5 | (21/21) Accurately ripped
6 | (21/21) Accurately ripped
7 | (21/21) Accurately ripped
8 | (21/21) Accurately ripped
9 | (21/21) Accurately ripped
10 | (21/21) Accurately ripped
11 | (21/21) Accurately ripped
12 | (21/21) Accurately ripped
13 | (21/21) Accurately ripped
14 | (21/21) Accurately ripped
15 | (21/21) Accurately ripped
16 | (21/21) Accurately ripped
17 | (21/21) Accurately ripped
18 | (21/21) Accurately ripped
19 | (21/21) Accurately ripped
20 | (21/21) Accurately ripped
21 | (21/21) Accurately ripped
22 | (21/21) Accurately ripped
23 | (21/21) Accurately ripped
24 | (21/21) Accurately ripped
25 | (21/21) Accurately ripped
26 | (21/21) Accurately ripped


==== Log checksum 8A9DA7EDDF2D2C5507F3E5A124B2C058C87173195BD7B318F930232ED8F07027 ====

Dominique Visse, Ensemble Clément Janequin - Une fête chez Rabelais: Chansons et pièces instrumentales (1994)

Thanks to the original releaser