Tags
Language
Tags

Donald Byrd - Pepper Adams Quintet - Complete Live At Jorgie's 1961 (2012)

Posted By:
Donald Byrd - Pepper Adams Quintet - Complete Live At Jorgie's 1961 (2012)

Donald Byrd - Pepper Adams Quintet - Complete Live At Jorgie's 1961 (2012)
EAC Rip | FLAC (tracks+.cue+log) - 300 MB | MP3 CBR 320 kbps (LAME 3.93) - 141 MB | Covers (7 MB) included
Genre: Jazz, Hard Bop | RAR 3% Rec. | Label: Solar Records (4569914)

This release contains all existing live performances by the Donald Byrd- Pepper Adams Quintet taped at Jorgie’s on June 24, 1961, and appearing on CD here for the first time ever. The quintet on that engagement featured Herbie Hancock on piano (both leaders had recently recorded the Blue Note album Chant with the pianist, and would make the LP Royal Flush with him a few months later). The fifth title at Jorgie’s is an extended trio version of “Like Someone in Love” on which both horns sit out. No other version of this tune by Hancock is known to exist!
Tracklist:
01. Jorgie's
02. 6M's (Blues In ?)
03. Hush
04. Amen
05. Like Someone In Love

Total time: 56:42

Exact Audio Copy V1.0 beta 3 from 29. August 2011

EAC extraction logfile from 15. January 2014, 11:48

Donald Byrd Pepper Adams Quintet / Complete Live At Jorgie's 1961

Used drive : HL-DT-STDVD+-RW GH82N Adapter: 0 ID: 1

Read mode : Secure
Utilize accurate stream : Yes
Defeat audio cache : Yes
Make use of C2 pointers : No

Read offset correction : 667
Overread into Lead-In and Lead-Out : No
Fill up missing offset samples with silence : Yes
Delete leading and trailing silent blocks : No
Null samples used in CRC calculations : Yes
Used interface : Native Win32 interface for Win NT & 2000
Gap handling : Appended to previous track

Used output format : User Defined Encoder
Selected bitrate : 1024 kBit/s
Quality : High
Add ID3 tag : No
Command line compressor : C:\Program Files (x86)\Exact Audio Copy\Flac\flac.exe
Additional command line options : -8 -V -T "ARTIST=%artist%" -T "TITLE=%title%" -T "ALBUM=%albumtitle%" -T "DATE=%year%" -T "TRACKNUMBER=%tracknr%" -T "GENRE=%genre%" -T "COMMENT=%comment%" -T "BAND=%albuminterpret%" -T "ALBUMARTIST=%albuminterpret%" -T "COMPOSER=%composer%" %haslyrics%–tag-from-file=LYRICS="%lyricsfile%"%haslyrics% -T "DISCNUMBER=%cdnumber%" -T "TOTALDISCS=%totalcds%" -T "TOTALTRACKS=%numtracks%" %hascover%–picture="%coverfile%"%hascover% %source% -o %dest%


TOC of the extracted CD

Track | Start | Length | Start sector | End sector
––––––––––––––––––––––––––––-
1 | 0:00.00 | 14:08.20 | 0 | 63619
2 | 14:08.20 | 10:13.69 | 63620 | 109663
3 | 24:22.14 | 10:42.04 | 109664 | 157817
4 | 35:04.18 | 9:32.57 | 157818 | 200774
5 | 44:37.00 | 12:05.41 | 200775 | 255190


Track 1

Filename C:\Rips\Donald Byrd Pepper Adams Quintet - Complete Live At Jorgie's 1961\01 Jorgie's.wav

Pre-gap length 0:00:02.00

Peak level 72.2 %
Extraction speed 2.2 X
Track quality 99.9 %
Copy CRC 8E3875F7
Accurately ripped (confidence 1) [58AFAD18] (AR v2)
Copy OK

Track 2

Filename C:\Rips\Donald Byrd Pepper Adams Quintet - Complete Live At Jorgie's 1961\02 6M's (Blues In ).wav

Peak level 69.3 %
Extraction speed 2.8 X
Track quality 100.0 %
Copy CRC A3B8F0B6
Accurately ripped (confidence 1) [DF644F23] (AR v2)
Copy OK

Track 3

Filename C:\Rips\Donald Byrd Pepper Adams Quintet - Complete Live At Jorgie's 1961\03 Hush.wav

Peak level 69.8 %
Extraction speed 3.0 X
Track quality 99.9 %
Copy CRC A755DCD7
Accurately ripped (confidence 1) [880BDDBC] (AR v2)
Copy OK

Track 4

Filename C:\Rips\Donald Byrd Pepper Adams Quintet - Complete Live At Jorgie's 1961\04 Amen.wav

Peak level 71.2 %
Extraction speed 3.4 X
Track quality 100.0 %
Copy CRC CE546590
Accurately ripped (confidence 1) [5D5D1FA6] (AR v2)
Copy OK

Track 5

Filename C:\Rips\Donald Byrd Pepper Adams Quintet - Complete Live At Jorgie's 1961\05 Like Someone In Love.wav

Peak level 80.9 %
Extraction speed 3.8 X
Track quality 100.0 %
Copy CRC 4DB0D534
Accurately ripped (confidence 1) [AD0724DB] (AR v2)
Copy OK


All tracks accurately ripped

No errors occurred

End of status report

–– CUETools DB Plugin V2.1.3

[CTDB TOCID: b6tPn57Q1FClwRjcHWodO6iyDj8-] found, Submit result: b6tPn57Q1FClwRjcHWodO6iyDj8- has been confirmed
[1c1c613f] (1/1) Accurately ripped


==== Log checksum A8CA43DAAD5AAC1F318A54048082414FCFBC3256CE56C5E1B87D4FE8CE237BB1 ====

[CUETools log; Date: 16.08.2021 12:27:22; Version: 2.1.4]
[CTDB TOCID: b6tPn57Q1FClwRjcHWodO6iyDj8-] found.
Track | CTDB Status
1 | (12/14) Accurately ripped
2 | (14/14) Accurately ripped
3 | (14/14) Accurately ripped
4 | (14/14) Accurately ripped
5 | (14/14) Accurately ripped
[AccurateRip ID: 000c027c-0037467e-3f0d4a05] found.
Track [ CRC | V2 ] Status
01 [b1172a93|58afad18] (00+10/10) Accurately ripped
02 [834d405b|df644f23] (00+10/10) Accurately ripped
03 [950d5402|880bddbc] (00+10/10) Accurately ripped
04 [075d8130|5d5d1fa6] (00+10/10) Accurately ripped
05 [25cb9b18|ad0724db] (00+10/10) Accurately ripped

Track Peak [ CRC32 ] [W/O NULL] [ LOG ]
– 80,9 [13E77471] [AF0C68A1]
01 72,2 [8E3875F7] [E26DB2A3] CRC32
02 69,3 [A3B8F0B6] [8E003402] CRC32
03 69,8 [A755DCD7] [D52576B4] CRC32
04 71,2 [CE546590] [BF965F3B] CRC32
05 80,9 [4DB0D534] [048B61D7] CRC32

Thanks to hoppyharrington

See also: