Tags
Language
Tags

James Levine, The Metropolitan Opera Orchestra - Donizetti: Don Pasquale (2011) [Blu-Ray]

Posted By: Vilboa
James Levine, The Metropolitan Opera Orchestra - Donizetti: Don Pasquale (2011) [Blu-Ray]

James Levine, The Metropolitan Opera Orchestra, John Del Carlo, Anna Netrebko, Mariusz Kwiecien - Donizetti: Don Pasquale (2011) [Blu-Ray]
BluRay | BDMV | MPEG-4 AVC Video / 31000 kbps / 1080i / 29,970 fps | 142 min | 40,6 Gb
Audio1: Italiano / LPCM Audio / 2.0 / 24-bit | Audio2: DTS-HD MA / 5.1 / 48 kHz / 4093 kbps / 24-bit
––––––
BluRay-rip1 | MKV 1920x1080 / 6215 kbps / 29,97 fps | 142 min | 7,70 Gb
BluRay-rip2 | MKV 1280x720 / 2735 kbps / 29,97 fps | 142 min | 5,28 Gb
Audio: Italiano / DTS / 6ch / 48.0 KHz / 24 bits
Classical | Deutsche Grammophon | Sub: Italian, English, German, French, Spanish

A red hot ticket at the Metropolitan Opera in 2010/2011 was Donizetti's comic gem, Don Pasquale, with Anna Netrebko reviving Norina, the part that made her a star in New York. Opera summed up the simple truth: ". . . everyone adored her". John Del Carlo's impressive singing and acting chops as the Don are given every boost by Otto Schenk's hilarious staging and James Levine's witty conducting. Leading this opera for the first time at the Met, the renowned maestro demonstrates that his gifts suit Donizetti as perfectly as Wagner. Mariusz Kwiecien and Matthew Polenzani scintillate as Malatesta and Ernesto. When Norina slaps Pasquale, the old man sees how deluded he has been to believe that the young beauty loves him. The San Francisco Chronicle paid homage to this turning point thus: "Netrebko captures the moment that gives the opera a heart it otherwise would lack" Filmed in November 2010, the DVD features backstage intermission interviews caught during the hubbub of performance.

Cast:
Don Pasquale - John Del Carlo
Dr. Malatesta - Mariusz Kwiecien
Ernesto - Matthew Polenzani
Norina - Anna Netrebko
Un notaro - Bernard Fitch
The Metropolitan Opera Orchestra and Chorus
Conductor – James Levine


01. Opening Credits
02. Introduction by Susan Graham
03. Overture
Act 1
04. "Son nov'ore"
05. "Bella siccome un angelo"
06. "Ah! Un foco insolito"
07. "Son rinato"
08. "Prender moglie?"
09. Sogno soave e casto
10. "Due parole ancor di volo"
11. "Quel guardo il cavaliere"
12. "So anch'io la virtù magica"
13. "E il dottor non si vede!"
14. "Pronta io son"
15. Mi volete fiera?
Act 2
16. Preludio
17. "Povero Ernesto!"
18. "Cercherò lontana terra"
19. "E se fia che ad altro oggetto"
Act 2
20. "Quando avrete introdotto"
21. "Via, da brava"
22. "Non abbiate paura"
23. "Fra da un parte"
24. "Ah, figluol, non mi far scene"
25. "E'rimasto là impietrato"
26. "Riunita immantinente la servitù"
27. Susan Graham with John Del Carlo and Matthew Polenzani
28. Susan Graham with Anna Netrebko and Mariusz Kwiecien
29. Introduction to Act Three by Susan Graham
Act 3
30. "I diamanti, presto, presto"
31. "Vediamo: alla modista"
32. "Signorina, in tanta fretta"
33. "E'finita, Don Pasquale"
34. Parto adunque. Parto pure … Via, caro sposino
35. "Qualche notta di cuffie"
36. "Che interminabile andirivieni!"
37. "Questa repentina chiamata"
38. "Cheti, cheti, immantinente"
39. "Aspetta, aspetta, cara sposina"
40. "Com'è gentil"
41. "Tornami a dir"
42. "Eccoli: attendi ben…"
43. "Senz'andar lungi…La morale in tutto questo"


Disc Title: DON_PASQUALE
Disc Size: 43 590 595 391 bytes
Protection: AACS
BD-Java: No
Playlist: 00004.MPLS
Size: 42 106 454 016 bytes
Length: 2:22:11.389
Total Bitrate: 39,48 Mbps
Video: MPEG-4 AVC Video / 31000 kbps / 1080i / 29,970 fps / 16:9 / High Profile 4.1
Audio: Italian / DTS-HD Master Audio / 5.1 / 48 kHz / 4093 kbps / 24-bit (DTS Core: 5.1 / 48 kHz / 1509 kbps / 24-bit)
Audio: Italian / LPCM Audio / 2.0 / 48 kHz / 2304 kbps / 24-bit
Subtitle: Italian / 15,609 kbps
Subtitle: English / 15,149 kbps
Subtitle: German / 17,280 kbps
Subtitle: French / 16,618 kbps
Subtitle: Spanish / 15,904 kbps


General
Unique ID : 245837058873091042144606234966970397475 (0xB8F27ECCCABE2CF6A87B00422230F323)
Complete name : C:\DON PASQUALE.mkv
Format : Matroska
Format version : Version 2
File size : 7.70 GiB
Duration : 2h 22mn
Overall bit rate : 7 758 Kbps
Movie name : DON PASQUALE
Encoded date : UTC 2020-09-23 17:28:08
Writing application : DVDFab 9.1.6.8
Writing library : libebml v0.7.8 + libmatroska v0.8.1

Video
ID : 1
Format : AVC
Format/Info : Advanced Video Codec
Format profile : High@L4.1
Format settings, CABAC : Yes
Format settings, ReFrames : 2 frames
Codec ID : V_MPEG4/ISO/AVC
Duration : 2h 22mn
Bit rate : 6 215 Kbps
Width : 1 920 pixels
Height : 1 080 pixels
Display aspect ratio : 16:9
Frame rate mode : Constant
Frame rate : 29.970 fps
Color space : YUV
Chroma subsampling : 4:2:0
Bit depth : 8 bits
Scan type : Progressive
Bits/(Pixel*Frame) : 0.100
Stream size : 6.05 GiB (79%)
Writing library : x264 core 142
Encoding settings : cabac=1 / ref=1 / deblock=1:-1:-1 / analyse=0x3:0 / me=hex / subme=5 / psy=0 / mixed_ref=0 / me_range=16 / chroma_me=1 / trellis=0 / 8x8dct=1 / cqm=0 / deadzone=21,11 / fast_pskip=1 / chroma_qp_offset=0 / threads=8 / lookahead_threads=2 / sliced_threads=0 / nr=0 / decimate=1 / interlaced=0 / bluray_compat=0 / constrained_intra=0 / bframes=2 / b_pyramid=0 / b_adapt=1 / b_bias=0 / direct=1 / weightb=1 / open_gop=0 / weightp=0 / keyint=24 / keyint_min=13 / scenecut=40 / intra_refresh=0 / rc=abr / mbtree=0 / bitrate=6215 / ratetol=1.0 / qcomp=0.60 / qpmin=0 / qpmax=69 / qpstep=4 / ip_ratio=1.40 / pb_ratio=1.30 / aq=1:1.00
Default : Yes
Forced : No
Color primaries : BT.709
Transfer characteristics : BT.709
Matrix coefficients : BT.709
Color range : Limited

Audio
ID : 2
Format : DTS
Format/Info : Digital Theater Systems
Mode : 16
Format settings, Endianness : Big
Codec ID : A_DTS
Duration : 2h 22mn
Bit rate mode : Constant
Bit rate : 1 509 Kbps
Channel(s) : 6 channels
Channel positions : Front: L C R, Side: L R, LFE
Sampling rate : 48.0 KHz
Bit depth : 24 bits
Compression mode : Lossy
Stream size : 1.50 GiB (19%)
Language : Italian
Default : Yes
Forced : No

Text #1
ID : 3
Format : VobSub
Codec ID : S_VOBSUB
Codec ID/Info : The same subtitle format used on DVDs
Language : Italian
Default : Yes
Forced : No

Text #2
ID : 4
Format : VobSub
Codec ID : S_VOBSUB
Codec ID/Info : The same subtitle format used on DVDs
Language : English
Default : No
Forced : No

Text #3
ID : 5
Format : VobSub
Codec ID : S_VOBSUB
Codec ID/Info : The same subtitle format used on DVDs
Language : German
Default : No
Forced : No

Text #4
ID : 6
Format : VobSub
Codec ID : S_VOBSUB
Codec ID/Info : The same subtitle format used on DVDs
Language : French
Default : No
Forced : No

Text #5
ID : 7
Format : VobSub
Codec ID : S_VOBSUB
Codec ID/Info : The same subtitle format used on DVDs
Language : Spanish
Default : No
Forced : No

Menu
00:00:00.000 : en:Chapter 01
00:00:48.048 : en:Chapter 02
00:02:17.337 : en:Chapter 03
00:08:51.964 : en:Chapter 04
00:11:53.446 : en:Chapter 05
00:16:04.263 : en:Chapter 06
00:18:24.436 : en:Chapter 07
00:20:49.114 : en:Chapter 08
00:22:29.247 : en:Chapter 09
00:25:08.874 : en:Chapter 10
00:29:54.692 : en:Chapter 11
00:32:05.490 : en:Chapter 12
00:36:32.723 : en:Chapter 13
00:39:38.175 : en:Chapter 14
00:42:53.003 : en:Chapter 15
00:49:03.340 : en:Chapter 16
00:51:42.499 : en:Chapter 17
00:53:14.357 : en:Chapter 18
00:55:50.413 : en:Chapter 19
00:57:59.275 : en:Chapter 20
00:59:42.779 : en:Chapter 21
01:04:26.863 : en:Chapter 22
01:09:01.537 : en:Chapter 23
01:12:49.331 : en:Chapter 24
01:17:14.062 : en:Chapter 25
01:20:37.465 : en:Chapter 26
01:25:54.282 : en:Chapter 27
01:29:27.095 : en:Chapter 28
01:32:36.851 : en:Chapter 29
01:33:19.060 : en:Chapter 30
01:34:48.716 : en:Chapter 31
01:36:32.586 : en:Chapter 32
01:39:36.370 : en:Chapter 33
01:42:53.634 : en:Chapter 34
01:46:27.447 : en:Chapter 35
01:48:04.177 : en:Chapter 36
01:52:06.553 : en:Chapter 37
01:55:14.307 : en:Chapter 38
01:58:57.530 : en:Chapter 39
02:04:08.340 : en:Chapter 40
02:08:33.338 : en:Chapter 41
02:12:09.721 : en:Chapter 42
02:15:56.515 : en:Chapter 43
02:20:52.110 : en:Chapter 44

All screenshots taken from BDRip

James Levine, The Metropolitan Opera Orchestra - Donizetti: Don Pasquale (2011) [Blu-Ray]