Tags
Language
Tags

Richard Bonynge, Joan Sutherland, Luciano Pavarotti - Donizetti: Maria Stuarda [1990/1976]

Posted By:
Richard Bonynge, Joan Sutherland, Luciano Pavarotti - Donizetti: Maria Stuarda [1990/1976]

Donizetti - Maria Stuarda (Richard Bonynge, Joan Sutherland, Luciano Pavarotti) [1990/1976]
Classical | DECCA 425 410-2 | TT: 122.50 | EAC (flac, cue, log) | Covers | 508 Mb

This opera becomes a battle of the divas in its great second act, with Sutherland, as Mary Stuart, pitted against the jealous, paranoid, and vengeful Elizabeth I (Tourangeau). There is an intensely dramatic confrontation in which insults are violently exchanged between the powerful monarch and her imprisoned but still regal rival to the throne. Mary wins the battle of insults, but this is a dangerous victory over one who has the power of life and death. Elizabeth orders Mary's execution and Act III becomes a spectacle of pathos and horror. Sutherland's usual style is more attuned to pathos than to the swapping of insults, but she rises splendidly to the challenges of Act II and she has a splendid supporting cast. (Joe McLellan)

Cast:
Maria Stuarda - Joan Sutherland
Elisabetta - Huguette Tourangeau
Leicestar - Luciano Pavarotti
Talbot - Roger Soyer
Cecil - James Morris
Anna - Margreta Elkins
Orchestra e Coro del Teatro Comunale di Bologna
Conductor - Richard Bonynge


CD1
Atto I. Introduzione… "Qui s'attenda, ell'è vicina" (Cordigiani)
Si, vuol di Francia il Rege (Elisabetta)
(Ah! quando all'ara scorgemi…) (Elisabetta)
In tal giorno di contendo (Talbot)
Ah! dal cielo discenda un raggio (Elisabetta)
Fra voi perché non veggio il Conte? (Elisabetta)
Hai nelle giostre, o Talbot, chiesto di me? (Leicester)
Questa imago, questo foglio (Talbot)
Sei tu confuso? (Elisabetta)
Si! Era d'amor l'immagine (Leicester)
(Sul crin la rivale la man mi stendea…) (Elisabetta)
Atto II. Allenta il piè, Regina (Anna)
O nube! che lieve per l'aria ti aggiri (Maria)
Nella pace del mestro riposo (Maria)
Ah! non m'inganna la gioia! (Maria)
Da tutti abbandonata (Maria)
Ah! Se il mio cor tremò giammai (Maria)
Qual loco è questo? (Elisabetta)
(E'sempre la stessa) (Elisabetta)
Deh! l'accogli… Morta al mondo, e morta al trono (Leicester, Maria)
Va, preparati, furente (Elisabetta)
CD2
01. Atto III. E pensi? e tardi? (Cecil)
02. Quella vita a me funesta (Elisabetta)
03. Ah, deh! per pietà sospendi (Leicester)
04. D'una sorella, o barbara (Leicester)
05. Vanne, indegno; t'appare nel volto (Elisabetta)
06. La perfida insultarmi volea nel mio sepolcro (Maria)
07. O mio buon Talbot! (Maria)
08. Quando di luce rosea (Maria)
09. Lascia contenta al carcere (Talbot)
10. Vedeste?…Vedemmo (Famigliari di Maria)
11. Anna!…Qui più sommessi favellate ( Tutti i famigliari di Maria, Anna)
12. Deh! Tu di un umile preghiera il suono (Maria)
13. O colpo!…E' già vicino del tuo morrir I'istante ((Famifliari, Cecil)
14. D'un cor che muore reca il perdono (Maria)
15. Giunge il Conte (Talbot)
16. Ah! de un giorno da queste ritorte (Maria)


Exact Audio Copy V1.0 beta 3 from 29. August 2011

EAC extraction logfile from 8. March 2017, 17:12

Richard Bonynge, Orchestra e Coro del Teatro Comunale di Bologna / Donizetti - Maria Stuarda CD1

Used drive : PIONEER BD-RW BDR-207M Adapter: 0 ID: 0

Read mode : Secure
Utilize accurate stream : Yes
Defeat audio cache : Yes
Make use of C2 pointers : No

Read offset correction : 667
Overread into Lead-In and Lead-Out : No
Fill up missing offset samples with silence : Yes
Delete leading and trailing silent blocks : No
Null samples used in CRC calculations : Yes
Used interface : Native Win32 interface for Win NT & 2000

Used output format : User Defined Encoder
Selected bitrate : 128 kBit/s
Quality : High
Add ID3 tag : No
Command line compressor : C:\Program Files\Exact Audio Copy\Flac\flac.exe
Additional command line options : -V -8 -T "Date=%year%" -T "Genre=%genre%" %source%


TOC of the extracted CD

Track | Start | Length | Start sector | End sector
––––––––––––––––––––––––––––-
1 | 0:00.33 | 3:26.22 | 33 | 15504
2 | 3:26.55 | 1:20.50 | 15505 | 21554
3 | 4:47.30 | 2:53.70 | 21555 | 34599
4 | 7:41.25 | 1:26.25 | 34600 | 41074
5 | 9:07.50 | 3:22.23 | 41075 | 56247
6 | 12:29.73 | 1:30.20 | 56248 | 63017
7 | 14:00.18 | 1:53.22 | 63018 | 71514
8 | 15:53.40 | 6:17.55 | 71515 | 99844
9 | 22:11.20 | 3:57.40 | 99845 | 117659
10 | 26:08.60 | 4:46.33 | 117660 | 139142
11 | 30:55.18 | 2:18.35 | 139143 | 149527
12 | 33:13.53 | 3:08.17 | 149528 | 163644
13 | 36:21.70 | 4:00.68 | 163645 | 181712
14 | 40:22.63 | 2:46.37 | 181713 | 194199
15 | 43:09.25 | 1:46.65 | 194200 | 202214
16 | 44:56.15 | 4:52.45 | 202215 | 224159
17 | 49:48.60 | 2:09.38 | 224160 | 233872
18 | 51:58.23 | 2:15.65 | 233873 | 244062
19 | 54:14.13 | 2:28.15 | 244063 | 255177
20 | 56:42.28 | 7:50.45 | 255178 | 290472
21 | 64:32.73 | 1:55.50 | 290473 | 299147


Range status and errors

Selected range

Filename C:\Donizetti - Maria Stuarda CD1.wav

Peak level 100.0 %
Extraction speed 4.5 X
Range quality 99.9 %
Test CRC 2D2986CC
Copy CRC 2D2986CC
Copy OK

No errors occurred

End of status report

==== Log checksum BC7D401D7B7C0F2352EBBC40532F34484C3F11D57E508DA419EE0A5E38E6140D ====


Exact Audio Copy V1.0 beta 3 from 29. August 2011

EAC extraction logfile from 8. March 2017, 18:01

Richard Bonynge, Orchestra e Coro del Teatro Comunale di Bologna / Donizetti - Maria Stuarda CD2

Used drive : PIONEER BD-RW BDR-207M Adapter: 0 ID: 0

Read mode : Secure
Utilize accurate stream : Yes
Defeat audio cache : Yes
Make use of C2 pointers : No

Read offset correction : 667
Overread into Lead-In and Lead-Out : No
Fill up missing offset samples with silence : Yes
Delete leading and trailing silent blocks : No
Null samples used in CRC calculations : Yes
Used interface : Native Win32 interface for Win NT & 2000

Used output format : User Defined Encoder
Selected bitrate : 128 kBit/s
Quality : High
Add ID3 tag : No
Command line compressor : C:\Program Files\Exact Audio Copy\Flac\flac.exe
Additional command line options : -V -8 -T "Date=%year%" -T "Genre=%genre%" %source%


TOC of the extracted CD

Track | Start | Length | Start sector | End sector
––––––––––––––––––––––––––––-
1 | 0:00.33 | 3:17.32 | 33 | 14839
2 | 3:17.65 | 4:40.43 | 14840 | 35882
3 | 7:58.33 | 3:12.67 | 35883 | 50349
4 | 11:11.25 | 1:29.53 | 50350 | 57077
5 | 12:41.03 | 1:26.02 | 57078 | 63529
6 | 14:07.05 | 3:47.43 | 63530 | 80597
7 | 17:54.48 | 4:30.47 | 80598 | 100894
8 | 22:25.20 | 6:00.55 | 100895 | 127949
9 | 28:26.00 | 2:19.48 | 127950 | 138422
10 | 30:45.48 | 5:34.55 | 138423 | 163527
11 | 36:20.28 | 4:16.30 | 163528 | 182757
12 | 40:36.58 | 3:49.67 | 182758 | 199999
13 | 44:26.50 | 1:31.00 | 200000 | 206824
14 | 45:57.50 | 3:38.68 | 206825 | 223242
15 | 49:36.43 | 1:59.60 | 223243 | 232227
16 | 51:36.28 | 4:46.30 | 232228 | 253707


Range status and errors

Selected range

Filename C:\Donizetti - Maria Stuarda CD2.wav

Peak level 97.8 %
Extraction speed 4.4 X
Range quality 99.9 %
Test CRC 19624F9D
Copy CRC 19624F9D
Copy OK

No errors occurred

End of status report

==== Log checksum 95AC2E37B6E61FDC32CBE66F87CBB0D541A9C69B24BDD24D47829E1743756A8E ====