Tags
Language
Tags

Dorothee Mields, Simone Eckert, Hamburger Ratsmusik - Johann Theile: Seelen-Music (2019)

Posted By: ArlegZ
Dorothee Mields, Simone Eckert, Hamburger Ratsmusik - Johann Theile: Seelen-Music (2019)

Dorothee Mields, Simone Eckert, Hamburger Ratsmusik - Johann Theile: Seelen-Music (2019)
EAC | FLAC | Image (Cue & Log) ~ 379 Mb | Total time: 68:35 | Scans included
Classical | Label: CPO | # 555 132-2 | Recorded: 2017

The title Seelen-Music (Soul Music) refers to the first complete collection of all the extant Cantatas by Johann Theile for soprano solo with viol accompaniment, presented here with the recording premieres of Sacred Concertos by Theile’s fellow Northern German Christian Flor and Instrumental Suites by the Gottorf violinist Gregor Zuber. The composer Johann Theile is of great significance in music history inasmuch as he is held to be one of the last pupils of Heinrich Schütz, who was the most important German-language composer of the seventeenth century. Theile presumably was appointed to the post of chapel master in Gottorf at the suggestion of Duchess Marie Elisabeth, the daughter of Prince Elector Johann Georg I of Saxony and in her youth a Schütz pupil in her own right. From 1673 to 1678 he worked at this court under her son Duke Christian Albrecht.

Performer:
Dorothee Mields, soprano
Hamburger Ratsmusik
Simone Eckert, conductor

Track List:
Johann Theile (1646-1724)
01. Sonata à 5
02. Die Seele Christi heilige mich
03-06. Sonata à 4
07. Jesu mein Herr und Gott
08. Sonata à 5
09. Gott hilf mir, denn das Wasser gehet mir bis an die Seele
Gregor Zuber (c1610-a1673)
10-13. Suite in a
Christian Flor (1626-1697)
14. Es ist gnug, Herr
Gregor Zuber
15-18. Suite in g
Christian Flor
19. Inter brachia Salvatoris mei
Gregor Zuber
20-23. Suite in d
Johann Theile
24. Ach, daß ich hören sollte


Exact Audio Copy V1.3 from 2. September 2016

EAC extraction logfile from 11. April 2021, 12:07

Dorothee Mields / Theile, Zuber, Flor - Seelen Music

Used drive : hp DVD-RAM GH82N Adapter: 1 ID: 0

Read mode : Secure
Utilize accurate stream : Yes
Defeat audio cache : Yes
Make use of C2 pointers : No

Read offset correction : 667
Overread into Lead-In and Lead-Out : No
Fill up missing offset samples with silence : Yes
Delete leading and trailing silent blocks : No
Null samples used in CRC calculations : Yes
Used interface : Native Win32 interface for Win NT & 2000

Used output format : User Defined Encoder
Selected bitrate : 1024 kBit/s
Quality : High
Add ID3 tag : No
Command line compressor : C:\Program Files (x86)\Exact Audio Copy\FLAC\FLAC.EXE
Additional command line options : -6 -V -T "ARTIST=%artist%" -T "TITLE=%title%" -T "ALBUM=%albumtitle%" -T "DATE=%year%" -T "TRACKNUMBER=%tracknr%" -T "GENRE=%genre%" -T "COMMENT=%comment%" -T "BAND=%albuminterpret%" -T "ALBUMARTIST=%albuminterpret%" -T "COMPOSER=%composer%" %haslyrics%–tag-from-file=LYRICS="%lyricsfile%"%haslyrics% -T "DISCNUMBER=%cdnumber%" -T "TOTALDISCS=%totalcds%" -T "TOTALTRACKS=%numtracks%" %hascover%–picture="%coverfile%"%hascover% %source% -o %dest%


TOC of the extracted CD

Track | Start | Length | Start sector | End sector
––––––––––––––––––––––––––––-
1 | 0:00.00 | 1:44.40 | 0 | 7839
2 | 1:44.40 | 6:15.11 | 7840 | 35975
3 | 7:59.51 | 0:57.10 | 35976 | 40260
4 | 8:56.61 | 1:41.25 | 40261 | 47860
5 | 10:38.11 | 1:23.11 | 47861 | 54096
6 | 12:01.22 | 0:37.56 | 54097 | 56927
7 | 12:39.03 | 5:17.65 | 56928 | 80767
8 | 17:56.68 | 4:59.59 | 80768 | 103251
9 | 22:56.52 | 7:00.31 | 103252 | 134782
10 | 29:57.08 | 3:35.66 | 134783 | 150973
11 | 33:32.74 | 1:24.45 | 150974 | 157318
12 | 34:57.44 | 0:33.63 | 157319 | 159856
13 | 35:31.32 | 1:05.20 | 159857 | 164751
14 | 36:36.52 | 6:54.42 | 164752 | 195843
15 | 43:31.19 | 3:43.71 | 195844 | 212639
16 | 47:15.15 | 1:04.49 | 212640 | 217488
17 | 48:19.64 | 1:00.42 | 217489 | 222030
18 | 49:20.31 | 0:48.07 | 222031 | 225637
19 | 50:08.38 | 5:04.66 | 225638 | 248503
20 | 55:13.29 | 3:04.54 | 248504 | 262357
21 | 58:18.08 | 0:58.33 | 262358 | 266740
22 | 59:16.41 | 1:03.00 | 266741 | 271465
23 | 60:19.41 | 0:24.09 | 271466 | 273274
24 | 60:43.50 | 7:49.70 | 273275 | 308519


Range status and errors

Selected range

Filename C:\rips\Dorothee Mields - Theile, Zuber, Flor - Seelen Music.wav

Peak level 98.8 %
Extraction speed 3.2 X
Range quality 100.0 %
Test CRC F1DA6971
Copy CRC F1DA6971
Copy OK

No errors occurred


AccurateRip summary

Track 1 accurately ripped (confidence 1) [A5EC2DFF] (AR v2)
Track 2 accurately ripped (confidence 1) [A7E7758D] (AR v2)
Track 3 accurately ripped (confidence 1) [B76F750D] (AR v2)
Track 4 accurately ripped (confidence 1) [95820CC5] (AR v2)
Track 5 accurately ripped (confidence 1) [7597CA7C] (AR v2)
Track 6 accurately ripped (confidence 1) [3E84AE5C] (AR v2)
Track 7 accurately ripped (confidence 1) [8A73FB3D] (AR v2)
Track 8 accurately ripped (confidence 1) [3B029801] (AR v2)
Track 9 accurately ripped (confidence 1) [ADD36FF7] (AR v2)
Track 10 accurately ripped (confidence 1) [CB1110C3] (AR v2)
Track 11 accurately ripped (confidence 1) [FCF98E4B] (AR v2)
Track 12 accurately ripped (confidence 1) [FC53E9AB] (AR v2)
Track 13 accurately ripped (confidence 1) [E2C9662F] (AR v2)
Track 14 accurately ripped (confidence 1) [7B7CAD53] (AR v2)
Track 15 accurately ripped (confidence 1) [EF16DE60] (AR v2)
Track 16 accurately ripped (confidence 1) [B3017A8C] (AR v2)
Track 17 accurately ripped (confidence 1) [AAD659AF] (AR v2)
Track 18 accurately ripped (confidence 1) [F0E9344B] (AR v2)
Track 19 accurately ripped (confidence 1) [9E7901A0] (AR v2)
Track 20 accurately ripped (confidence 1) [0E65F01A] (AR v2)
Track 21 accurately ripped (confidence 1) [8A84F3F2] (AR v2)
Track 22 accurately ripped (confidence 1) [80115E22] (AR v2)
Track 23 accurately ripped (confidence 1) [A57B15F6] (AR v2)
Track 24 accurately ripped (confidence 1) [E4038716] (AR v2)

All tracks accurately ripped

End of status report

–– CUETools DB Plugin V2.1.6

[CTDB TOCID: MvTtu2SidAJY3GHZ1LKFlVqbckc-] found
Submit result: MvTtu2SidAJY3GHZ1LKFlVqbckc- has been confirmed
Track | CTDB Status
1 | (7/7) Accurately ripped
2 | (7/7) Accurately ripped
3 | (7/7) Accurately ripped
4 | (7/7) Accurately ripped
5 | (7/7) Accurately ripped
6 | (7/7) Accurately ripped
7 | (7/7) Accurately ripped
8 | (7/7) Accurately ripped
9 | (7/7) Accurately ripped
10 | (7/7) Accurately ripped
11 | (7/7) Accurately ripped
12 | (7/7) Accurately ripped
13 | (7/7) Accurately ripped
14 | (7/7) Accurately ripped
15 | (7/7) Accurately ripped
16 | (7/7) Accurately ripped
17 | (7/7) Accurately ripped
18 | (7/7) Accurately ripped
19 | (7/7) Accurately ripped
20 | (7/7) Accurately ripped
21 | (7/7) Accurately ripped
22 | (7/7) Accurately ripped
23 | (7/7) Accurately ripped
24 | (6/7) Accurately ripped


==== Log checksum 1A4A68756D37D9296DAF16B5C582AC9B1B28A75D335AEE1A1CF1C7B78DA4F9E3 ====

Dorothee Mields, Simone Eckert, Hamburger Ratsmusik - Johann Theile: Seelen-Music (2019)

Thanks to the original releaser