Subcategories

Edouard Abramian - 24 Preludes (Mikael Ayrapetyan) [2014]

Posted By: Aregak
Edouard Abramian - 24 Preludes (Mikael Ayrapetyan) [2014]

Edouard Abramian - 24 Preludes (Mikael Ayrapetyan) [2014]
EAC Rip | FLAC, TRACKs+CUE, LOG | Covers | 1cd, 207.28 MB
Classical | Label: Grand Piano | Catalog Number: GP665

The composer, pianist and teacher Eduard Aslanovich Abramian was one of the most significant and respected figures in the development of modern Armenian music. Drawing on features of Armenian folklore, Abramian’s impressive 24 Preludes do not follow a highly structured tonal scheme but one which appears to be spontaneous, key following key principally to satisfy the need for dramatic contrast of mood and colour…
Performer:
Mikael Ayrapetyan - Piano

Tracklisting:
24 Preludes
01. No. 1 in E-Flat Major (01:24)
02. No. 2 in C Major (02:53)
03. No. 3 in E Minor (02:14)
04. No. 4 in E-Flat Minor (03:05)
05. No. 5 in D Minor (04:42)
06. No. 6 in C-Sharp Minor (02:00)
07. No. 7 in D-Flat Major (02:56)
08. No. 8 in B-Flat Major (02:13)
09. No. 9 in F-Sharp Major (02:50)
10. No. 10 in E Major (01:27)
11. No. 11 in F-Sharp Minor (03:15)
12. No. 12 in F Minor (01:36)
13. No. 13 in A Major (03:10)
14. No. 14 in B-Flat Minor (01:21)
15. No. 15 in D Minor (03:49)
16. No. 16 in F Major (02:16)
17. No. 17 in B Major (01:13)
18. No. 18 in G Minor (02:11)
19. No. 19 in G-Sharp Minor (02:55)
20. No. 20 in A-Flat Major (02:51)
21. No. 21 in C Minor (01:54)
22. No. 22 in G Major (03:02)
23. No. 23 in E-Flat Minor (02:43)
24. No. 24 in B Minor (02:40)

Exact Audio Copy V1.0 beta 3 from 29. August 2011

EAC extraction logfile from 7. February 2015, 17:53

Edouard Abramian / Abramian - 24 Preludes (Ayrapetyan)

Used drive : PIONEER DVD-RW DVR-221L Adapter: 2 ID: 0

Read mode : Secure
Utilize accurate stream : Yes
Defeat audio cache : Yes
Make use of C2 pointers : No

Read offset correction : 6
Overread into Lead-In and Lead-Out : No
Fill up missing offset samples with silence : Yes
Delete leading and trailing silent blocks : No
Null samples used in CRC calculations : Yes
Used interface : Installed external ASPI interface
Gap handling : Appended to previous track

Used output format : User Defined Encoder
Selected bitrate : 768 kBit/s
Quality : High
Add ID3 tag : No
Command line compressor : C:\Program Files\Exact Audio Copy\Flac\flac.exe
Additional command line options : -6 -V -T "ARTIST=%artist%" -T "TITLE=%title%" -T "ALBUM=%albumtitle%" -T "DATE=%year%" -T "TRACKNUMBER=%tracknr%" -T "GENRE=%genre%" -T "COMMENT=%comment%" -T "ALBUMARTIST=%albuminterpret%" -T "COMPOSER=%composer%" -T "DISCNUMBER=%cdnumber%" -T "TOTALDISCS=%totalcds%" -T "TOTALTRACKS=%numtracks%" %source% -o %dest%

TOC of the extracted CD

Track | Start | Length | Start sector | End sector
––––––––––––––––––––––––––––-
1 | 0:00.00 | 1:23.52 | 0 | 6276
2 | 1:23.52 | 2:53.07 | 6277 | 19258
3 | 4:16.59 | 2:14.00 | 19259 | 29308
4 | 6:30.59 | 3:04.67 | 29309 | 43175
5 | 9:35.51 | 4:41.38 | 43176 | 64288
6 | 14:17.14 | 2:00.14 | 64289 | 73302
7 | 16:17.28 | 2:56.02 | 73303 | 86504
8 | 19:13.30 | 2:12.48 | 86505 | 96452
9 | 21:26.03 | 2:49.36 | 96453 | 109163
10 | 24:15.39 | 1:26.74 | 109164 | 115687
11 | 25:42.38 | 3:14.43 | 115688 | 130280
12 | 28:57.06 | 1:35.32 | 130281 | 137437
13 | 30:32.38 | 3:09.28 | 137438 | 151640
14 | 33:41.66 | 1:20.72 | 151641 | 157712
15 | 35:02.63 | 3:49.16 | 157713 | 174903
16 | 38:52.04 | 2:15.51 | 174904 | 185079
17 | 41:07.55 | 1:13.28 | 185080 | 190582
18 | 42:21.08 | 2:10.37 | 190583 | 200369
19 | 44:31.45 | 2:54.38 | 200370 | 213457
20 | 47:26.08 | 2:50.46 | 213458 | 226253
21 | 50:16.54 | 1:53.50 | 226254 | 234778
22 | 52:10.29 | 3:01.47 | 234779 | 248400
23 | 55:12.01 | 2:43.08 | 248401 | 260633
24 | 57:55.09 | 2:39.59 | 260634 | 272617

Track 1

Filename D:\EAC\01 - 24 Preludes - No. 1 in E-Flat Major.wav

Pre-gap length 0:00:02.00

Peak level 85.7 %
Extraction speed 3.6 X
Track quality 100.0 %
Test CRC FB86454F
Copy CRC FB86454F
Track not present in AccurateRip database
Copy OK

Track 2

Filename D:\EAC\02 - No. 2 in C Major.wav

Peak level 89.3 %
Extraction speed 4.4 X
Track quality 100.0 %
Test CRC EAA47581
Copy CRC EAA47581
Track not present in AccurateRip database
Copy OK

Track 3

Filename D:\EAC\03 - No. 3 in E Minor.wav

Peak level 88.2 %
Extraction speed 4.7 X
Track quality 100.0 %
Test CRC BEF76EFF
Copy CRC BEF76EFF
Track not present in AccurateRip database
Copy OK

Track 4

Filename D:\EAC\04 - No. 4 in E-Flat Minor.wav

Peak level 87.1 %
Extraction speed 4.1 X
Track quality 99.9 %
Test CRC E267AF3C
Copy CRC E267AF3C
Track not present in AccurateRip database
Copy OK

Track 5

Filename D:\EAC\05 - No. 5 in D Minor.wav

Peak level 87.6 %
Extraction speed 5.0 X
Track quality 99.9 %
Test CRC 9AF1B633
Copy CRC 9AF1B633
Track not present in AccurateRip database
Copy OK

Track 6

Filename D:\EAC\06 - No. 6 in C-Sharp Minor.wav

Peak level 88.2 %
Extraction speed 3.9 X
Track quality 99.9 %
Test CRC 1A9A3B9F
Copy CRC 1A9A3B9F
Track not present in AccurateRip database
Copy OK

Track 7

Filename D:\EAC\07 - No. 7 in D-Flat Major.wav

Peak level 87.0 %
Extraction speed 6.1 X
Track quality 100.0 %
Test CRC 890CDEAF
Copy CRC 890CDEAF
Track not present in AccurateRip database
Copy OK

Track 8

Filename D:\EAC\08 - No. 8 in B-Flat Major.wav

Peak level 89.3 %
Extraction speed 6.0 X
Track quality 100.0 %
Test CRC 7175DADF
Copy CRC 7175DADF
Track not present in AccurateRip database
Copy OK

Track 9

Filename D:\EAC\09 - No. 9 in F-Sharp Major.wav

Peak level 88.5 %
Extraction speed 6.5 X
Track quality 100.0 %
Test CRC 22DCD47B
Copy CRC 22DCD47B
Track not present in AccurateRip database
Copy OK

Track 10

Filename D:\EAC\10 - No. 10 in E Major.wav

Peak level 85.8 %
Extraction speed 3.7 X
Track quality 99.8 %
Test CRC 0E67E8C6
Copy CRC 0E67E8C6
Track not present in AccurateRip database
Copy OK

Track 11

Filename D:\EAC\11 - No. 11 in F-Sharp Minor.wav

Peak level 88.1 %
Extraction speed 7.0 X
Track quality 100.0 %
Test CRC 21043706
Copy CRC 21043706
Track not present in AccurateRip database
Copy OK

Track 12

Filename D:\EAC\12 - No. 12 in F Minor.wav

Peak level 86.7 %
Extraction speed 6.0 X
Track quality 100.0 %
Test CRC 0135BD60
Copy CRC 0135BD60
Track not present in AccurateRip database
Copy OK

Track 13

Filename D:\EAC\13 - No. 13 in A Major.wav

Peak level 88.2 %
Extraction speed 7.3 X
Track quality 100.0 %
Test CRC 9A037CBB
Copy CRC 9A037CBB
Track not present in AccurateRip database
Copy OK

Track 14

Filename D:\EAC\14 - No. 14 in B-Flat Minor.wav

Peak level 88.2 %
Extraction speed 3.9 X
Track quality 99.8 %
Test CRC F5E0996B
Copy CRC F5E0996B
Track not present in AccurateRip database
Copy OK

Track 15

Filename D:\EAC\15 - No. 15 in D Minor.wav

Peak level 86.8 %
Extraction speed 7.9 X
Track quality 100.0 %
Test CRC 83FD231A
Copy CRC 83FD231A
Track not present in AccurateRip database
Copy OK

Track 16

Filename D:\EAC\16 - No. 16 in F Major.wav

Peak level 87.8 %
Extraction speed 7.3 X
Track quality 100.0 %
Test CRC A2166E64
Copy CRC A2166E64
Track not present in AccurateRip database
Copy OK

Track 17

Filename D:\EAC\17 - No. 17 in B Major.wav

Peak level 87.7 %
Extraction speed 3.9 X
Track quality 99.8 %
Test CRC B81D1D03
Copy CRC B81D1D03
Track not present in AccurateRip database
Copy OK

Track 18

Filename D:\EAC\18 - No. 18 in G Minor.wav

Peak level 88.0 %
Extraction speed 5.3 X
Track quality 99.9 %
Test CRC 195AB780
Copy CRC 195AB780
Track not present in AccurateRip database
Copy OK

Track 19

Filename D:\EAC\19 - No. 19 in G-Sharp Minor.wav

Peak level 87.8 %
Extraction speed 8.0 X
Track quality 100.0 %
Test CRC 2F01E280
Copy CRC 2F01E280
Track not present in AccurateRip database
Copy OK

Track 20

Filename D:\EAC\20 - No. 20 in A-Flat Major.wav

Peak level 87.4 %
Extraction speed 6.2 X
Track quality 99.9 %
Test CRC 6D646D39
Copy CRC 6D646D39
Track not present in AccurateRip database
Copy OK

Track 21

Filename D:\EAC\21 - No. 21 in C Minor.wav

Peak level 88.0 %
Extraction speed 7.7 X
Track quality 100.0 %
Test CRC 6ADB8BB6
Copy CRC 6ADB8BB6
Track not present in AccurateRip database
Copy OK

Track 22

Filename D:\EAC\22 - No. 22 in G Major.wav

Peak level 88.7 %
Extraction speed 8.5 X
Track quality 100.0 %
Test CRC 42FB2673
Copy CRC 42FB2673
Track not present in AccurateRip database
Copy OK

Track 23

Filename D:\EAC\23 - No. 23 in E-Flat Minor.wav

Peak level 87.7 %
Extraction speed 8.6 X
Track quality 100.0 %
Test CRC 58F7541E
Copy CRC 58F7541E
Track not present in AccurateRip database
Copy OK

Track 24

Filename D:\EAC\24 - No. 24 in B Minor.wav

Peak level 86.6 %
Extraction speed 8.5 X
Track quality 100.0 %
Test CRC 3EFCF79B
Copy CRC 3EFCF79B
Track not present in AccurateRip database
Copy OK

None of the tracks are present in the AccurateRip database

No errors occurred

End of status report

==== Log checksum 3366B0428BD6F5D4EAB35AA49F2F5C55CA4F67F0DCB58FD4EC9188ED0E33625E ====