Tags
Language
Tags

Eagles - Eagles & Hotel California (1999)

Posted By: v3122
Eagles - Eagles & Hotel California (1999)

Eagles - Eagles & Hotel California (1999)
EAC | Flac(Image) + Cue + Log & MP3 CBR 320Kbps
Limited Edition, P-13 | RU | ~ 489 or 189 Mb | Artwork(jpg) -> 15 Mb
Country Rock / Classic Rock | Unofficial Release

Eagles:
Balance is the key element of the Eagles' self-titled debut album, a collection that contains elements of rock & roll, folk, and country, overlaid by vocal harmonies alternately suggestive of doo wop, the Beach Boys, and the Everly Brothers. If the group kicks up its heels on rockers like "Chug All Night," "Nightingale," and "Tryin'," it is equally convincing on ballads like "Most of Us Are Sad" and "Train Leaves Here This Morning." The album is also balanced among its members, who trade off on lead vocal chores and divide the songwriting such that Glenn Frey, Bernie Leadon, and Randy Meisner all get three writing or co-writing credits. (Fourth member Don Henley, with only one co-writing credit and two lead vocals, falls a little behind, while Jackson Browne, Gene Clark, and Jack Tempchin also figure in the writing credits.) The album's overall balance is worth keeping in mind because it produced three Top 40 hit singles (all of which turned up on the massively popular Eagles: Their Greatest Hits 1971-1975) that do not reflect that balance. "Take It Easy" and "Peaceful Easy Feeling" are similar-sounding mid-tempo folk-rock tunes sung by Frey that express the same sort of laid-back philosophy, as indicated by the word "easy" in both titles, while "Witchy Woman," a Henley vocal and co-composition, initiates the band's career-long examination of supernaturally evil females. These are the songs one remembers from Eagles, and they look forward to the eventual dominance of the band by Frey and Henley. But the complete album from which they come belongs as much to Leadon's country-steeped playing and singing and to Meisner's melodic rock & roll feel, which, on the release date, made it seem a more varied and consistent effort than it did later, when the singles had become overly familiar.

Hotel California:
The Eagles took 18 months between their fourth and fifth albums, reportedly spending eight months in the studio recording Hotel California. The album was also their first to be made without Bernie Leadon, who had given the band much of its country flavor, and with rock guitarist Joe Walsh. As a result, the album marks a major leap for the Eagles from their earlier work, as well as a stylistic shift toward mainstream rock. An even more important aspect, however, is the emergence of Don Henley as the band's dominant voice, both as a singer and a lyricist. On the six songs to which he contributes, Henley sketches a thematic statement that begins by using California as a metaphor for a dark, surreal world of dissipation; comments on the ephemeral nature of success and the attraction of excess; branches out into romantic disappointment; and finally sketches a broad, pessimistic history of America that borders on nihilism. Of course, the lyrics kick in some time after one has appreciated the album's music, which marks a peak in the Eagles' playing. Early on, the group couldn't rock convincingly, but the rhythm section of Henley and Meisner has finally solidified, and the electric guitar work of Don Felder and Joe Walsh has arena-rock heft. In the early part of their career, the Eagles never seemed to get a sound big enough for their ambitions; after changes in producer and personnel, as well as a noticeable growth in creativity, Hotel California unveiled what seemed almost like a whole new band. It was a band that could be bombastic, but also one that made music worthy of the later tag of "classic rock," music appropriate for the arenas and stadiums the band was playing. The result was the Eagles' biggest-selling regular album release, and one of the most successful rock albums ever.

~ allmusic
Eagles - Eagles & Hotel California (1999):

Eagles - Eagles & Hotel California (1999)

Tracklist:

Eagles, 1972:
01. Take It Easy (3:32)
02. Witchy Woman (4:13)
03. Chug All Night (3:15)
04. _Most Of Us Are Sad (3:35)
05. Nightingale (4:01)
06. Train Leaves Here This Morning (4:11)
07. Take The Devil (3:57)
08. Earlybird (2:55)
09. Peaceful Easy Feeling (4:18)
10. Tryin' (2:54)

Hotel California, 1976:
11. Hotel California (6:30)
12. New Kid In Town (5:04)
13. _Life In The Fast Lane (4:45)
14. Wasted Time (4:54)
15. _Wasted Time (Reprise) (1:22)
16. Victim Of Love (4:10)
17. Pretty Maids All In A Row (3:52)
18. Try And Love Again (5:06)
19. _The Last Resort (7:14)

Exact Audio Copy V1.3 from 2. September 2016

Отчёт EAC об извлечении, выполненном 14. мая 2019, 14:40

Eagles / Eagles / Hotel California (Limited Edition, P-13)

Дисковод: TSSTcorpCDDVDW SH-S222A Adapter: 1 ID: 0

Режим чтения : Достоверность
Использование точного потока : Да
Отключение кэша аудио : Да
Использование указателей C2 : Нет

Коррекция смещения при чтении : 6
Способность читать области Lead-in и Lead-out : Нет
Заполнение пропущенных сэмплов тишиной : Да
Удаление блоков с тишиной в начале и конце : Нет
При вычислениях CRC использовались нулевые сэмплы : Да
Интерфейс : Встроенный Win32-интерфейс для Win NT/2000

Выходной формат : Пользовательский кодировщик
Выбранный битрейт : 896 kBit/s
Качество : Высокий
Добавление ID3-тега : Нет
Утилита сжатия : C:\Program Files\Exact Audio Copy\FLAC\FLAC.EXE
Дополнительные параметры : -6 -V -T "ARTIST=%artist%" -T "TITLE=%title%" -T "ALBUM=%albumtitle%" -T "DATE=%year%" -T "TRACKNUMBER=%tracknr%" -T "GENRE=%genre%" -T "COMMENT=%comment%" -T "BAND=%albuminterpret%" -T "ALBUMARTIST=%albuminterpret%" -T "COMPOSER=%composer%" %haslyrics%–tag-from-file=LYRICS="%lyricsfile%"%haslyrics% -T "DISCNUMBER=%cdnumber%" -T "TOTALDISCS=%totalcds%" -T "TOTALTRACKS=%numtracks%" %hascover%–picture="%coverfile%"%hascover% %source% -o %dest%


TOC извлечённого CD

Трек | Старт | Длительность | Начальный сектор | Конечный сектор
––––––––––––––––––––––––––––––––––-
1 | 0:00.00 | 3:31.58 | 0 | 15882
2 | 3:31.58 | 4:12.63 | 15883 | 34845
3 | 7:44.46 | 3:14.65 | 34846 | 49460
4 | 10:59.36 | 3:34.65 | 49461 | 65575
5 | 14:34.26 | 4:01.16 | 65576 | 83666
6 | 18:35.42 | 4:10.45 | 83667 | 102461
7 | 22:46.12 | 3:57.36 | 102462 | 120272
8 | 26:43.48 | 2:55.06 | 120273 | 133403
9 | 29:38.54 | 4:17.40 | 133404 | 152718
10 | 33:56.19 | 2:53.54 | 152719 | 165747
11 | 36:49.73 | 6:29.41 | 165748 | 194963
12 | 43:19.39 | 5:04.07 | 194964 | 217770
13 | 48:23.46 | 4:45.15 | 217771 | 239160
14 | 53:08.61 | 4:53.47 | 239161 | 261182
15 | 58:02.33 | 1:21.63 | 261183 | 267320
16 | 59:24.21 | 4:09.62 | 267321 | 286057
17 | 63:34.08 | 3:51.71 | 286058 | 303453
18 | 67:26.04 | 5:05.40 | 303454 | 326368
19 | 72:31.44 | 7:13.43 | 326369 | 358886


Характеристики диапазона извлечения и сообщения об ошибках

Выбранный диапазон

Имя файла D:\Music\Мои раздачи\Eagles - Eagles , Hotel California (Limited Edition, P-13).wav

Пиковый уровень 100.0 %
Скорость извлечения 7.6 X
Качество диапазона 100.0 %
CRC теста 130C4080
CRC копии 130C4080
Копирование… OK

Ошибок не произошло


AccurateRip: сводка

Трек 1 : извлечено точно (доверие 1) [9E5B424B] (AR v1)
Трек 2 : извлечено точно (доверие 1) [A4B67B14] (AR v1)
Трек 3 : извлечено точно (доверие 1) [97F0EEBF] (AR v1)
Трек 4 : извлечено точно (доверие 1) [EB1E2590] (AR v1)
Трек 5 : извлечено точно (доверие 1) [14920965] (AR v1)
Трек 6 : извлечено точно (доверие 1) [3FB631B3] (AR v1)
Трек 7 : извлечено точно (доверие 1) [A10EED67] (AR v1)
Трек 8 : извлечено точно (доверие 1) [E0383CC5] (AR v1)
Трек 9 : извлечено точно (доверие 1) [F6C075FF] (AR v1)
Трек 10 : извлечено точно (доверие 1) [D5358596] (AR v1)
Трек 11 : извлечено точно (доверие 1) [34528EF9] (AR v1)
Трек 12 : извлечено точно (доверие 1) [2138DD41] (AR v1)
Трек 13 : извлечено точно (доверие 1) [0A5E1F43] (AR v1)
Трек 14 : извлечено точно (доверие 1) [1A2597C0] (AR v1)
Трек 15 : извлечено точно (доверие 1) [0C04EB16] (AR v1)
Трек 16 : извлечено точно (доверие 1) [74DED59C] (AR v1)
Трек 17 : извлечено точно (доверие 1) [F2495702] (AR v1)
Трек 18 : извлечено точно (доверие 1) [40C4F5F5] (AR v1)
Трек 19 : извлечено точно (доверие 1) [DC73C02D] (AR v1)

Все треки извлечены точно

Конец отчёта

–– CUETools DB Plugin V2.1.6

[CTDB TOCID: GJ9jpzpgWLmyLzpjottCxYryIX8-] disk not present in database
Submit result: GJ9jpzpgWLmyLzpjottCxYryIX8- has been uploaded


==== Контрольная сумма отчёта 48A50C68341F7B2D87C77F37ABE48BA27E0D6CB400A2CD2C0F76FC66612ECC53 ====


[CUETools log; Date: 19.05.2019 9:22:52; Version: 2.1.4]
[AccurateRip ID: 00339007-02d98e2a-0412b113] found.
Track [ CRC | V2 ] Status
01 [9e5b424b|ecb45fb6] (1+0/1) Accurately ripped
02 [a4b67b14|9c8a255c] (1+0/1) Accurately ripped
03 [97f0eebf|ac3732f1] (1+0/1) Accurately ripped
04 [eb1e2590|135bcfb3] (1+0/1) Accurately ripped
05 [14920965|a30d4d7a] (1+0/1) Accurately ripped
06 [3fb631b3|28f2a9d7] (1+0/1) Accurately ripped
07 [a10eed67|bf95346c] (1+0/1) Accurately ripped
08 [e0383cc5|770dd64a] (1+0/1) Accurately ripped
09 [f6c075ff|c1914a69] (1+0/1) Accurately ripped
10 [d5358596|de18628a] (1+0/1) Accurately ripped
11 [34528ef9|c3facb04] (1+0/1) Accurately ripped
12 [2138dd41|0702721f] (1+0/1) Accurately ripped
13 [0a5e1f43|e27ccc6c] (1+0/1) Accurately ripped
14 [1a2597c0|54226378] (1+0/1) Accurately ripped
15 [0c04eb16|dbbd5f67] (1+0/1) Accurately ripped
16 [74ded59c|14bf10d9] (1+0/1) Accurately ripped
17 [f2495702|5a133958] (1+0/1) Accurately ripped
18 [40c4f5f5|5a765970] (1+0/1) Accurately ripped
19 [dc73c02d|44d19c35] (1+0/1) Accurately ripped

Track Peak [ CRC32 ] [W/O NULL] [ LOG ]
– 100,0 [130C4080] [85A0A54A] CRC32
01 95,9 [B3FB5B2B] [41318FC8]
02 99,5 [26B48590] [2FFC49C6]
03 98,9 [6DE68E3E] [87C48F6D]
04 90,2 [9783F62B] [7974E1AB]
05 91,9 [99BBD4D3] [1C06CFF4]
06 100,0 [6B5A239B] [38306373]
07 100,0 [BFDD4C1A] [55249A84]
08 80,8 [9CE24786] [823AFBDC]
09 92,5 [16E1FCA8] [2EC177EF]
10 99,3 [CCA62D58] [32990FD5]
11 99,2 [0B1C05A4] [2D148ED0]
12 99,0 [E14BFEFD] [DC4FB6FF]
13 99,2 [4F11F45F] [A2CB5108]
14 100,0 [2565A1D9] [30D715E7]
15 72,9 [76EFBE7F] [217A5CDD]
16 91,0 [33BEF497] [508E3C6C]
17 100,0 [BCDB8D59] [D65F5729]
18 99,0 [FA558B54] [7BFE78C8]
19 100,0 [C71775F1] [74179048]


Eagles - Eagles & Hotel California (1999)

All thanks go to the original releaser

Eagles in my Blog

Download Eagles - Eagles & Hotel California (1999):