Tags
Language
Tags
February 2023
Su Mo Tu We Th Fr Sa
29 30 31 1 2 3 4
5 6 7 8 9 10 11
12 13 14 15 16 17 18
19 20 21 22 23 24 25
26 27 28 1 2 3 4

Egg - Egg (1970) [2008, Esoteric Recordings ECLEC 2035] Repost

Posted By: v3122
Egg - Egg (1970) [2008, Esoteric Recordings ECLEC 2035] Repost

Egg - Egg (1970)
EAC | Flac(Image) + Cue + Log & MP3 CBR 320Kbps
Esoteric Recordings ECLEC 2035 | ~ 265 or 119 Mb | Artwork(jpg) -> 24 Mb
Progressive Rock | Remastered

With a strong Canterbury influence implanted into their sound, Egg's first album has the band looking to establish their niche as a progressive group, with Dave Stewart's sharp, effective keyboard work outlining much of the album's overall feel. Mixing jazz and progressive rock drifts, the tracks on Egg contain rhythms and meters that are never at a standstill, with ongoing instrumental action encompassing nearly every track. Numerous classical overtones make for a familiar listen against a backdrop of loose-ended jazz fusion and an unordered yet inviting array of haphazard progressive spillages. The fragmented instrumentals sport an attractive inexperience, especially on "Bulb" and "The Song of McGillicudie the Pussilanimous," which also introduce Egg's lighthearted whimsy. Both "Blane" and "I Will Be Absorbed" represent the most colorful example of Egg's progressive rock fundamentals, with quick tempos and assertive keyboard runs. Although Egg's cohesiveness as a band is in its early stages, Dave Stewart ascertains himself as an elite keyboard player throughout the album, later moving on to play with Hatfield and the North and National Health. Egg's next album, 1971's Polite Force, has them sounding firmer and more self-contained, but their debut presents an entertaining example of different progressive genres playing off of one another.

by Mike DeGagne, allmusic
Egg - Egg (1970):

Egg - Egg (1970) [2008, Esoteric Recordings ECLEC 2035] Repost

Tracklist:

1. Bulb (0:09)
2. While Growing my Hair (4:03)
3. I will be Absorbed (5:12)
4. Fugue in D Minor (2:49)
5. They laughed when I sat down at the Piano… (1:21)
6. The song of McGuillicudie the Pusillanimous (or don't worry James, your socks are hanging in the coal cellar with Thomas) (5:10)
7. Boilk (1:03)
Symphony No 2
8. First movement (5:47)
9. Second movement (6:17)
10. Blane (5:28)
11. Third movement (previously unreleased) (3:10)
12. Fourth movement (3:13)
13. Seven Is A Jolly Good Time (A-side, single 1969) (2:48)
14. You Are All Princes (B-side, single 1969) (3:45)

Musicians:

Dave Stewart - organ, piano, tone generator
Mont Campbell - bass, vocals
Clive Brook - drums


EAC extraction logfile from 9. December 2008, 19:59 for CD
Egg / Egg

Used drive : TSSTcorpCD/DVDW TS-H552D Adapter: 0 ID: 0
Read mode : Secure with NO C2, accurate stream, disable cache
Read offset correction : 6
Overread into Lead-In and Lead-Out : No

Used output format : C:\Users\Pollux\Downloads\Syrup098b7\Syrup.exe (User Defined Encoder)
320 kBit/s
Additional command line options : REACT %o %s %d "%a" "%g" "%t" "%n" "%x" "%y" "%m" "%e" "%f" "%b" %r

Other options :
Fill up missing offset samples with silence : Yes
Delete leading and trailing silent blocks : No
Native Win32 interface for Win NT & 2000


Track 1
Filename I:\Eac\Egg - Egg - 01 - Bulb.wav

Pre-gap length 0:00:02.00

Peak level 64.7 %
Track quality 100.0 %
Test CRC 1C9E4FB4
Copy CRC 1C9E4FB4
Copy OK

Track 2
Filename I:\Eac\Egg - Egg - 02 - While Growing My Hair.wav

Pre-gap length 0:00:00.45

Peak level 90.6 %
Track quality 100.0 %
Test CRC EAFF580D
Copy CRC EAFF580D
Copy OK

Track 3
Filename I:\Eac\Egg - Egg - 03 - I Will Be Absorbed.wav

Pre-gap length 0:00:03.18

Peak level 90.6 %
Track quality 100.0 %
Test CRC BC7059D4
Copy CRC BC7059D4
Copy OK

Track 4
Filename I:\Eac\Egg - Egg - 04 - Fugue In D Minor.wav

Pre-gap length 0:00:02.14

Peak level 90.6 %
Track quality 100.0 %
Test CRC 752189AC
Copy CRC 752189AC
Copy OK

Track 5
Filename I:\Eac\Egg - Egg - 05 - They Laughed When I Sat Down At The Piano….wav

Pre-gap length 0:00:02.46

Peak level 84.7 %
Track quality 100.0 %
Test CRC 5C0B3A12
Copy CRC 5C0B3A12
Copy OK

Track 6
Filename I:\Eac\Egg - Egg - 06 - The Song Of McGillicudie The Pusillanimous (or Don't Worry James, Your Socks Are Hanging In The Coal Cellar With Thomas).wav

Pre-gap length 0:00:02.43

Peak level 90.6 %
Track quality 99.9 %
Test CRC EED901FB
Copy CRC EED901FB
Copy OK

Track 7
Filename I:\Eac\Egg - Egg - 07 - Boilk.wav

Pre-gap length 0:00:02.04

Peak level 78.7 %
Track quality 100.0 %
Test CRC 5DBF9336
Copy CRC 5DBF9336
Copy OK

Track 8
Filename I:\Eac\Egg - Egg - 08 - Symphony No. 2- First Movement.wav

Pre-gap length 0:00:01.62

Peak level 90.6 %
Track quality 99.9 %
Test CRC 71C8D51E
Copy CRC 71C8D51E
Copy OK

Track 9
Filename I:\Eac\Egg - Egg - 09 - Symphony No. 2- Second Movement.wav

Peak level 90.6 %
Track quality 100.0 %
Test CRC 86A7AA57
Copy CRC 86A7AA57
Copy OK

Track 10
Filename I:\Eac\Egg - Egg - 10 - Symphony No. 2- Blane.wav

Peak level 78.3 %
Track quality 100.0 %
Test CRC 0FEFE2F4
Copy CRC 0FEFE2F4
Copy OK

Track 11
Filename I:\Eac\Egg - Egg - 11 - Symphony No. 2- Third Movement.wav

Peak level 90.6 %
Track quality 100.0 %
Test CRC 2C68A46A
Copy CRC 2C68A46A
Copy OK

Track 12
Filename I:\Eac\Egg - Egg - 12 - Symphony No. 2- Fourth Movement.wav

Peak level 90.6 %
Track quality 100.0 %
Test CRC 610E822C
Copy CRC 610E822C
Copy OK

Track 13
Filename I:\Eac\Egg - Egg - 13 - Seven Is A Jolly Good Time.wav

Pre-gap length 0:00:02.11

Peak level 90.9 %
Track quality 100.0 %
Test CRC 2A50583F
Copy CRC 2A50583F
Copy OK

Track 14
Filename I:\Eac\Egg - Egg - 14 - You Are All Princes.wav

Pre-gap length 0:00:02.19

Peak level 90.3 %
Track quality 99.9 %
Test CRC 6EC4FF92
Copy CRC 6EC4FF92
Copy OK

No errors occured


End of status report


[CUETools log; Date: 27.11.2018 6:35:28; Version: 2.1.4]
[AccurateRip ID: 00184c0c-010be049-af0bc70e] found.
Track [ CRC | V2 ] Status
01 [0b4322af|f06b4045] (07+26/65) Accurately ripped
02 [4a36ef3d|e2b203ec] (07+26/64) Accurately ripped
03 [2c052903|876d7f34] (07+26/65) Accurately ripped
04 [ea769d63|faebccfb] (07+26/65) Accurately ripped
05 [183fa409|f0c5b82f] (07+26/65) Accurately ripped
06 [a2bacd4c|f8d7fca0] (07+26/65) Accurately ripped
07 [1862c99d|b5405409] (07+26/65) Accurately ripped
08 [455d2a63|6635c9b1] (07+26/65) Accurately ripped
09 [678530db|5214dd15] (07+26/65) Accurately ripped
10 [ddcb4586|46fabb4c] (07+26/65) Accurately ripped
11 [a5f52773|1d1b503d] (07+26/64) Accurately ripped
12 [fd6efe20|73aff3eb] (07+25/63) Accurately ripped
13 [978b8a31|9d794f53] (07+25/64) Accurately ripped
14 [e42ce02d|76626a1c] (07+25/64) Accurately ripped
Offsetted by -30:
01 [678e7a99] (04/65) Accurately ripped
02 [0fd5d5ba] (03/64) Accurately ripped
03 [67012264] (04/65) Accurately ripped
04 [faf5b18d] (04/65) Accurately ripped
05 [3153e77e] (04/65) Accurately ripped
06 [98ed7d33] (04/65) Accurately ripped
07 [92ef7719] (04/65) Accurately ripped
08 [412dc723] (04/65) Accurately ripped
09 [1d51dc68] (04/65) Accurately ripped
10 [da7bdb1f] (04/65) Accurately ripped
11 [4a31cf3b] (04/64) Accurately ripped
12 [53d99214] (04/63) Accurately ripped
13 [84f7bc5c] (04/64) Accurately ripped
14 [305861cc] (04/64) Accurately ripped
Offsetted by 18:
01 [a0af8789] (05/65) Accurately ripped
02 [d3a466a2] (05/64) Accurately ripped
03 [08a12b4c] (05/65) Accurately ripped
04 [e090c47d] (05/65) Accurately ripped
05 [6f99e3a6] (05/65) Accurately ripped
06 [43e5fbab] (05/65) Accurately ripped
07 [339194b9] (05/65) Accurately ripped
08 [8d10ed12] (05/65) Accurately ripped
09 [e0b4e20a] (05/65) Accurately ripped
10 [4365727c] (05/65) Accurately ripped
11 [b9a20403] (03/64) Accurately ripped
12 [8909dbc2] (03/63) Accurately ripped
13 [d5e43a94] (04/64) Accurately ripped
14 [e9ac5d84] (04/64) Accurately ripped
Offsetted by 30:
01 [aef7cac5] (10/65) Accurately ripped
02 [84980c44] (10/64) Accurately ripped
03 [f1092c1e] (10/65) Accurately ripped
04 [d9f78939] (10/65) Accurately ripped
05 [ff2b6418] (10/65) Accurately ripped
06 [b00c19e1] (10/65) Accurately ripped
07 [9a521c21] (10/65) Accurately ripped
08 [10b0d8d2] (10/65) Accurately ripped
09 [b54842b5] (10/65) Accurately ripped
10 [8c1e7f49] (10/65) Accurately ripped
11 [59c360da] (11/64) Accurately ripped
12 [6035c85f] (11/63) Accurately ripped
13 [aa1f5b8a] (11/64) Accurately ripped
14 [98015b0a] (11/64) Accurately ripped

Track Peak [ CRC32 ] [W/O NULL] [ LOG ]
– 90,9 [188BC382] [B4F3A212]
01 64,7 [1C9E4FB4] [EBC60819] CRC32
02 90,6 [EAFF580D] [B4965735] CRC32
03 90,6 [BC7059D4] [945745CE] CRC32
04 90,6 [752189AC] [0C59996D] CRC32
05 84,7 [5C0B3A12] [C9F87D1D] CRC32
06 90,6 [EED901FB] [37564CBF] CRC32
07 78,7 [5DBF9336] [442BDF95] CRC32
08 90,6 [71C8D51E] [C675CB15] CRC32
09 90,6 [86A7AA57] [9F3DAD19] CRC32
10 78,3 [0FEFE2F4] [8C60DB52] CRC32
11 90,6 [2C68A46A] [29C58A61] CRC32
12 90,6 [610E822C] [D32450BE] CRC32
13 90,9 [2A50583F] [5FE7B762] CRC32
14 90,3 [6EC4FF92] [DB53F6A6] CRC32


Egg - Egg (1970) [2008, Esoteric Recordings ECLEC 2035] Repost

All thanks go to pepe26

Download Egg - Egg (1970):