Subcategories

Electric Light Orchestra - Live Unapproved (1973)

Posted By: v3122
Electric Light Orchestra - Live Unapproved (1973)

Electric Light Orchestra - Live Unapproved (1973)
EAC | Flac(Image) + Cue + Log & MP3 CBR 320Kbps
Mojo, MOJO-054 | ~ 351 or 128 Mb | Artwork(jpg) -> 3.86 Mb
Progressive Rock | Unofficial Release

Electric Light Orchestra (or ELO for short, now going by Jeff Lynne's ELO) is a British rock group from Birmingham, England, which released eleven studio albums between 1971 and 1986 and two more albums,
Zoom in 2001 and Alone In The Universe in 2015, both which featured only Jeff Lynne and Richard Tandy from the original lineup. Following the 2015 album release, the band has toured as Jeff Lynne's ELO.

ELO was inducted to the Rock and Roll Hall of Fame in 2017…

~ discogs
Electric Light Orchestra - Live Unapproved (1973)

Electric Light Orchestra - Live Unapproved (1973):

Tracklist:

1 - Roll Over Beethoven - 4.48
2 - King Of The Universe - 4.51
3 - Bluebird Is Dead - 3.55
4 - In The Hall Of The Mountain king - 3.27
5 - Great Balls Of Fire - 1.15
6 - From The Sun To The World - 11.19
7 - Ma-Ma-Ma Belle - 4.52
8 - Kuiama - 11.26
9 - Oh No, Not Susan - 2.51
10 - New World Rising - 5.21

Exact Audio Copy V0.99 prebeta 4 from 23. January 2008

Отчёт EAC об извлечении, выполненном 3. декабря 2010, 21:04

Electric Light Orchestra / Unapproved Recording

Дисковод: HL-DT-STDVDRAM GSA-E40N Adapter: 2 ID: 0

Режим чтения : Достоверность
Использование точного потока : Да
Отключение кэша аудио : Да
Использование указателей C2 : Нет

Коррекция смещения при чтении : 667
Способность читать области Lead-in и Lead-out : Нет
Заполнение пропущенных сэмплов тишиной : Да
Удаление блоков с тишиной в начале и конце : Нет
При вычислениях CRC использовались нулевые сэмплы : Да
Интерфейс : Встроенный Win32-интерфейс для Win NT/2000
Обработка зазоров : Добавлено к предыдущему треку

Выходной формат : Пользовательский кодировщик
Выбранный битрейт : 128 kBit/s
Качество : Высокий
Добавление ID3-тэга : Нет
Утилита сжатия : C:\Program Files\Exact Audio Copy\FLAC\FLAC.EXE
Дополнительные параметры : -6 -V -T "ARTIST=%a" -T "TITLE=%t" -T "ALBUM=%g" -T "DATE=%y" -T "TRACKNUMBER=%n" -T "GENRE=%m" -T "COMMENT=%e" %s -o %d


TOC извлечённого CD

Трек | Старт | Длительность | Начальный сектор | Конечный сектор
––––––––––––––––––––––––––––––––––-
1 | 0:00.00 | 4:48.00 | 0 | 21599
2 | 4:48.00 | 4:51.03 | 21600 | 43427
3 | 9:39.03 | 3:55.03 | 43428 | 61055
4 | 13:34.06 | 3:27.01 | 61056 | 76581
5 | 17:01.07 | 1:15.03 | 76582 | 82209
6 | 18:16.10 | 11:19.01 | 82210 | 133135
7 | 29:35.11 | 4:52.02 | 133136 | 155037
8 | 34:27.13 | 11:26.03 | 155038 | 206490
9 | 45:53.16 | 2:51.02 | 206491 | 219317
10 | 48:44.18 | 5:21.00 | 219318 | 243392


Трек 1

Имя файла G:\ELO Live +\1973 - Unapproved Recording\01 - Roll Over Beethoven.wav

Длина предзазора 0:00:02.00

Пиковый уровень 98.0 %
Качество трека 99.0 %
CRC теста 84681496
CRC копии 84681496
Копирование… OK

Трек 2

Имя файла G:\ELO Live +\1973 - Unapproved Recording\02 - King Of The Universe.wav

Пиковый уровень 97.0 %
Качество трека 98.0 %
CRC теста 5E42E726
CRC копии 5E42E726
Копирование… OK

Трек 3

Имя файла G:\ELO Live +\1973 - Unapproved Recording\03 - Bluebird Is Dead.wav

Пиковый уровень 99.0 %
Качество трека 100.0 %
CRC теста 98BF52E9
CRC копии 98BF52E9
Копирование… OK

Трек 4

Имя файла G:\ELO Live +\1973 - Unapproved Recording\04 - In The Hall Of The Mountain king.wav

Пиковый уровень 96.0 %
Качество трека 100.0 %
CRC теста 4BC674AD
CRC копии 4BC674AD
Копирование… OK

Трек 5

Имя файла G:\ELO Live +\1973 - Unapproved Recording\05 - Great Balls Of Fire.wav

Пиковый уровень 97.0 %
Качество трека 99.8 %
CRC теста D10FA75C
CRC копии D10FA75C
Копирование… OK

Трек 6

Имя файла G:\ELO Live +\1973 - Unapproved Recording\06 - From The Sun To The World.wav

Пиковый уровень 99.0 %
Качество трека 100.0 %
CRC теста 5882D0E3
CRC копии 5882D0E3
Копирование… OK

Трек 7

Имя файла G:\ELO Live +\1973 - Unapproved Recording\07 - Ma Ma Ma Belle.wav

Пиковый уровень 97.0 %
Качество трека 99.0 %
CRC теста 96E7D10E
CRC копии 96E7D10E
Копирование… OK

Трек 8

Имя файла G:\ELO Live +\1973 - Unapproved Recording\08 - Kuiama.wav

Пиковый уровень 98.0 %
Качество трека 99.9 %
CRC теста 80142765
CRC копии 80142765
Копирование… OK

Трек 9

Имя файла G:\ELO Live +\1973 - Unapproved Recording\09 - Oh No, Not Susan.wav

Пиковый уровень 100.0 %
Качество трека 99.9 %
CRC теста 7FD5FCA5
CRC копии 7FD5FCA5
Копирование… OK

Трек 10

Имя файла G:\ELO Live +\1973 - Unapproved Recording\10 - New World Rising.wav

Длина предзазора 0:00:02.00

Пиковый уровень 97.0 %
Качество трека 99.0 %
CRC теста B913F5AA
CRC копии B913F5AA
Копирование… OK

Ошибок не произошло

Конец отчёта


[CUETools log; Date: 04.09.2020 8:51:42; Version: 2.1.4]
[AccurateRip ID: 0012f48c-009b9071-8f0cad0a] disk not present in database.

Track Peak [ CRC32 ] [W/O NULL] [ LOG ]
– 100,0 [F390CD4F] [DF41652E]
01 100,0 [84681496] [4E0A49F7] CRC32
02 100,0 [5E42E726] [EB2594AC] CRC32
03 100,0 [98BF52E9] [91A62F48] CRC32
04 100,0 [4BC674AD] [315525E8] CRC32
05 100,0 [D10FA75C] [5D9F228D] CRC32
06 100,0 [5882D0E3] [4B6B4F23] CRC32
07 100,0 [96E7D10E] [96886593] CRC32
08 100,0 [80142765] [A6311110] CRC32
09 100,0 [7FD5FCA5] [11EA2A9F] CRC32
10 100,0 [B913F5AA] [1225737F] CRC32


Electric Light Orchestra - Live Unapproved (1973)

All thanks go to the original releaser

Electric Light Orchestra in my Blog

Download Electric Light Orchestra - Live Unapproved (1973):