Subcategories

Electric Light Orchestra Part 2 - Time After Time (1998)

Posted By: gribovar
Electric Light Orchestra Part 2 - Time After Time (1998)

Electric Light Orchestra Part 2 - Time After Time (1998)
EAC Rip | APE (image+.cue+log) - 394 MB | MP3 CBR 320 kbps (LAME 3.93) - 141 MB | Covers (15 MB) included
Genre: Symphonic Rock, Pop Rock | RAR 3% Rec. | Label: Cedar (GFS108)

ELO Part II were an offshoot band formed by Electric Light Orchestra drummer Bev Bevan. The band also included former ELO bassist Kelly Groucutt, conductor Louis Clark and violinist Mik Kaminski for most of its career. After Bevan left the band in 2000 he sold back the rights of the Electric Light Orchestra name to Jeff Lynne and the band continued on as The Orchestra. This album recorded live in Australia.
Tracklist:
01. Livin' Thing
02. Mr. Blue Sky
03. Telephone Line
04. Strange Magic
05. Sweet Talkin' Woman
06. Confusion
07. Do Ya
08. Rockaria
09. Roll Over Beethoven
10. Hold On Tight
11. Turn To Stone
12. Rock & Roll is King
13. Don't Bring Me Down
14. Standing In The Rain
15. One More Tomorrow

Total time: 53:08

Exact Audio Copy V0.99 prebeta 4 from 23. January 2008

EAC extraction logfile from 21. July 2009, 8:56

Electric Light Orchestra Part II / Time After Time

Used drive : ATAPI DVD A DH20A4P Adapter: 1 ID: 0

Read mode : Secure
Utilize accurate stream : Yes
Defeat audio cache : Yes
Make use of C2 pointers : No

Read offset correction : 6
Overread into Lead-In and Lead-Out : No
Fill up missing offset samples with silence : Yes
Delete leading and trailing silent blocks : No
Null samples used in CRC calculations : Yes
Used interface : Installed external ASPI interface

Used output format : Internal WAV Routines
Sample format : 44.100 Hz; 16 Bit; Stereo


TOC of the extracted CD

Track | Start | Length | Start sector | End sector
––––––––––––––––––––––––––––-
1 | 0:00.00 | 3:50.02 | 0 | 17251
2 | 3:50.02 | 5:01.18 | 17252 | 39844
3 | 8:51.20 | 4:43.12 | 39845 | 61081
4 | 13:34.32 | 2:12.33 | 61082 | 71014
5 | 15:46.65 | 2:03.52 | 71015 | 80291
6 | 17:50.42 | 1:52.50 | 80292 | 88741
7 | 19:43.17 | 2:28.18 | 88742 | 99859
8 | 22:11.35 | 3:15.25 | 99860 | 114509
9 | 25:26.60 | 5:38.30 | 114510 | 139889
10 | 31:05.15 | 1:57.25 | 139890 | 148689
11 | 33:02.40 | 2:42.05 | 148690 | 160844
12 | 35:44.45 | 3:18.40 | 160845 | 175734
13 | 39:03.10 | 4:13.10 | 175735 | 194719
14 | 43:16.20 | 4:39.15 | 194720 | 215659
15 | 47:55.35 | 5:12.42 | 215660 | 239101


Range status and errors

Selected range

Filename C:\Documents and Settings\Marta & Marнa\Escritorio\IСAKI\EAC IMATGES\Imбgenes Way\Electric Light Orchestra Part II - Time After Time\Electric Light Orchestra Part II - Time After Time.wav

Peak level 100.0 %
Range quality 100.0 %
Test CRC 9F33C640
Copy CRC 9F33C640
Copy OK

No errors occurred


AccurateRip summary

Track 1 accurately ripped (confidence 3) [6B516C5A]
Track 2 accurately ripped (confidence 3) [64A0E8E3]
Track 3 accurately ripped (confidence 3) [E28D9001]
Track 4 accurately ripped (confidence 3) [7EED8CE9]
Track 5 accurately ripped (confidence 3) [A987C11C]
Track 6 accurately ripped (confidence 3) [4DB31154]
Track 7 accurately ripped (confidence 3) [79595249]
Track 8 accurately ripped (confidence 3) [D67F3DA4]
Track 9 accurately ripped (confidence 3) [CBB7F276]
Track 10 accurately ripped (confidence 3) [BD2D87B6]
Track 11 accurately ripped (confidence 3) [FEEACF5D]
Track 12 accurately ripped (confidence 3) [26092727]
Track 13 accurately ripped (confidence 3) [E294CA8D]
Track 14 accurately ripped (confidence 3) [955B38A9]
Track 15 accurately ripped (confidence 3) [C4261B4B]

All tracks accurately ripped

End of status report

[CUETools log; Date: 20.06.2019 23:38:45; Version: 2.1.4]
[CTDB TOCID: Mqu9AKkT7F6A17agCSecgGqPjxU-] found.
Track | CTDB Status
1 | (52/52) Accurately ripped
2 | (52/52) Accurately ripped
3 | (52/52) Accurately ripped
4 | (51/52) Accurately ripped
5 | (52/52) Accurately ripped
6 | (52/52) Accurately ripped
7 | (52/52) Accurately ripped
8 | (52/52) Accurately ripped
9 | (52/52) Accurately ripped
10 | (52/52) Accurately ripped
11 | (51/52) Accurately ripped
12 | (51/52) Accurately ripped
13 | (51/52) Accurately ripped
14 | (51/52) Accurately ripped
15 | (49/52) Accurately ripped
[AccurateRip ID: 001c2fc8-013c2ff8-e20c740f] found.
Track [ CRC | V2 ] Status
01 [6b516c5a|6957a9fd] (10+11/29) Accurately ripped
02 [64a0e8e3|0d5d93f5] (10+11/28) Accurately ripped
03 [e28d9001|09aa1490] (10+11/29) Accurately ripped
04 [7eed8ce9|f6316a03] (10+11/28) Accurately ripped
05 [a987c11c|3581de0f] (10+11/28) Accurately ripped
06 [4db31154|3f5d46cb] (09+11/28) Accurately ripped
07 [79595249|5b13b519] (09+11/27) Accurately ripped
08 [d67f3da4|f0308c06] (10+11/28) Accurately ripped
09 [cbb7f276|473aced5] (10+11/28) Accurately ripped
10 [bd2d87b6|2044338f] (10+11/28) Accurately ripped
11 [feeacf5d|3cec04a4] (10+11/29) Accurately ripped
12 [26092727|56b8fcd6] (10+11/29) Accurately ripped
13 [e294ca8d|66271c86] (10+11/29) Accurately ripped
14 [955b38a9|095604c7] (10+10/27) Accurately ripped
15 [c4261b4b|8432ed1a] (10+09/26) Accurately ripped
Offsetted by -664:
01 [0c9ae0b8] (04/29) Accurately ripped
02 [dec0a944] (03/28) Accurately ripped
03 [21d775e8] (04/29) Accurately ripped
04 [0dc1b48e] (03/28) Accurately ripped
05 [fb4db853] (03/28) Accurately ripped
06 [b5bcda9a] (04/28) Accurately ripped
07 [240f51ae] (03/27) Accurately ripped
08 [2292a837] (03/28) Accurately ripped
09 [982d3cb7] (03/28) Accurately ripped
10 [df4ad984] (03/28) Accurately ripped
11 [c2dd9efb] (04/29) Accurately ripped
12 [c0c31648] (04/29) Accurately ripped
13 [0d3d9ae4] (04/29) Accurately ripped
14 [f86846cf] (03/27) Accurately ripped
15 [7d3933a0] (03/26) Accurately ripped
Offsetted by -10:
01 [e9b05d51] (00/29) No match (V2 was not tested)
02 [fe8b07d1] (00/28) No match (V2 was not tested)
03 [fa5a9de3] (00/29) No match (V2 was not tested)
04 [7555b01a] (00/28) No match (V2 was not tested)
05 [774ced6c] (00/28) No match (V2 was not tested)
06 [a211a1f0] (00/28) No match (V2 was not tested)
07 [1af94c2f] (00/27) No match (V2 was not tested)
08 [5709c87c] (00/28) No match (V2 was not tested)
09 [bec1a196] (00/28) No match (V2 was not tested)
10 [5ba044db] (00/28) No match (V2 was not tested)
11 [0d1e4846] (00/29) No match (V2 was not tested)
12 [4127e6a3] (00/29) No match (V2 was not tested)
13 [a47be534] (00/29) No match (V2 was not tested)
14 [d037010e] (00/27) No match (V2 was not tested)
15 [c4a2a4f3] (00/26) No match (V2 was not tested)

Track Peak [ CRC32 ] [W/O NULL] [ LOG ]
– 100,0 [9F33C640] [B83F9535] CRC32
01 98,8 [2677208D] [C5EA46BC]
02 98,4 [A63A5C6A] [E0857505]
03 95,8 [02C531C0] [1CA5BB95]
04 89,7 [F5A52CCD] [ED54EB3E]
05 98,5 [A59BB2E5] [A0C8A187]
06 96,3 [FA3DA794] [FEA91B50]
07 100,0 [A3877C19] [39BC6949]
08 99,9 [F14E1113] [53E4AE5B]
09 99,1 [4D271D13] [08434BB6]
10 91,1 [27392EA4] [C31A04D3]
11 96,0 [EE55E104] [90679A05]
12 94,3 [A77025A6] [7E91BBCF]
13 100,0 [253A8667] [7E916477]
14 95,5 [3AE4AF47] [6C92AD27]
15 96,8 [BD2F7B84] [AF9F204B]

Thanks to TheWarrior