Subcategories

Electric Swan - Electric Swan (2008)

Posted By: gribovar
Electric Swan - Electric Swan (2008)

Electric Swan - Electric Swan (2008)
EAC Rip | APE (image+.cue+log) - 421 MB | MP3 CBR 320 kbps (LAME 3.93) - 147 MB | Covers - 16 MB
Genre: Hard Rock, Progressive Rock | RAR 3% Rec. | Label: Bad Chili Records (BC002-08)

Electric Swan was born as solo project from Wicked Minds guitarist and founding member, Lucio Calegari. Electric Swan was recorded in January/May 2008 at Mofo studio (Piacenza-Italy) by Marco Gandolfi that produces the work for Bad Chili Records, a young indie label at its third release, distribuited worldwide from Black Widow records. It's a collection of new songs (some instrumental), 2 ten years-old Wicked Minds tracks never recorded before, and 3 covers: Tommy Bolin's "Teaser", Ruth Copeland's "Your Love Been So Good to Me" and Metallica's "Creeping Death".
Tracklist:
01. In The Hush OF Daze
02. Electric Swan
03. Your Love Been So Good To Me
04. Eleventh Angel
05. Beyond The Rising Sun
06. Calibro 9
07. Crossing The Line
08. Redwitch
09. Teaser
10. Apollo's Dream
11. Creeping Death

Total time: 01:02:31

Exact Audio Copy V0.99 prebeta 5 from 4. May 2009

Отчёт EAC об извлечении, выполненном 2. января 2014, 17:31

Electric Swan / Electric Swan

Дисковод: Optiarc DVD RW AD-7700S Adapter: 2 ID: 0

Режим чтения : Достоверность
Использование точного потока : Да
Отключение кэша аудио : Да
Использование указателей C2 : Нет

Коррекция смещения при чтении : 48
Способность читать области Lead-in и Lead-out : Нет
Заполнение пропущенных сэмплов тишиной : Да
Удаление блоков с тишиной в начале и конце : Нет
При вычислениях CRC использовались нулевые сэмплы : Да
Интерфейс : Встроенный Win32-интерфейс для Win NT/2000

Выходной формат : Внутренние WAV-операции
Формат сэмплов : 44.100 Гц; 16 бит; стерео


TOC извлечённого CD

Трек | Старт | Длительность | Начальный сектор | Конечный сектор
––––––––––––––––––––––––––––––––––-
1 | 0:00.00 | 5:01.10 | 0 | 22584
2 | 5:01.10 | 5:24.08 | 22585 | 46892
3 | 10:25.18 | 3:53.09 | 46893 | 64376
4 | 14:18.27 | 3:40.08 | 64377 | 80884
5 | 17:58.35 | 7:20.29 | 80885 | 113913
6 | 25:18.64 | 3:51.42 | 113914 | 131280
7 | 29:10.31 | 6:00.01 | 131281 | 158281
8 | 35:10.32 | 5:50.26 | 158282 | 184557
9 | 41:00.58 | 4:17.25 | 184558 | 203857
10 | 45:18.08 | 6:51.71 | 203858 | 234753
11 | 52:10.04 | 10:20.62 | 234754 | 281315


Характеристики диапазона извлечения и сообщения об ошибках

Выбранный диапазон

Имя файла C:\Users\Полякова\Desktop\Free Fall\Electric Swan - Electric Swan.wav

Пиковый уровень 98.8 %
Качество диапазона 100.0 %
CRC теста 523AE9B9
CRC копии 523AE9B9
Копирование… OK

Ошибок не произошло


AccurateRip: сводка

Трек 1 точность не определена (достоверность 3) [31E15853], AccurateRip вернул [5E7C5081]
Трек 2 точность не определена (достоверность 3) [EC1505B0], AccurateRip вернул [E5040352]
Трек 3 точность не определена (достоверность 3) [5A6FC7D7], AccurateRip вернул [D6F8C09B]
Трек 4 точность не определена (достоверность 3) [A02FDD3A], AccurateRip вернул [FEBE97FA]
Трек 5 точность не определена (достоверность 3) [C2D7D438], AccurateRip вернул [4D076E77]
Трек 6 точность не определена (достоверность 3) [04F8128C], AccurateRip вернул [9AA98FE9]
Трек 7 точность не определена (достоверность 3) [D46334E1], AccurateRip вернул [B3EBD8C4]
Трек 8 точность не определена (достоверность 3) [0B43DC2C], AccurateRip вернул [C8E3868C]
Трек 9 точность не определена (достоверность 3) [44449891], AccurateRip вернул [232028D1]
Трек 10 точность не определена (достоверность 3) [170D529C], AccurateRip вернул [5058090B]
Трек 11 точность не определена (достоверность 3) [7A8CDD5E], AccurateRip вернул [98F539CB]

Ни один трек не прошёл проверки на точность
В вашей базе может быть иной вариант штамповки диска

Конец отчёта

[CUETools log; Date: 28.10.2017 21:46:45; Version: 2.1.4]
[CTDB TOCID: 7JcrcEWODk3S3My5ncq3.eUO87Y-] found.
Track | CTDB Status
1 | (2/2) Accurately ripped
2 | (2/2) Accurately ripped
3 | (2/2) Accurately ripped
4 | (2/2) Accurately ripped
5 | (2/2) Accurately ripped
6 | (2/2) Accurately ripped
7 | (2/2) Accurately ripped
8 | (2/2) Accurately ripped
9 | (2/2) Accurately ripped
10 | (2/2) Accurately ripped
11 | (2/2) Accurately ripped
[AccurateRip ID: 00173c0f-00cc12e2-6d0ea60b] found.
Track [ CRC | V2 ] Status
01 [31e15853|5e7c5081] (0+3/3) Accurately ripped
02 [ec1505b0|e5040352] (0+3/3) Accurately ripped
03 [5a6fc7d7|d6f8c09b] (0+3/3) Accurately ripped
04 [a02fdd3a|febe97fa] (0+3/3) Accurately ripped
05 [c2d7d438|4d076e77] (0+3/3) Accurately ripped
06 [04f8128c|9aa98fe9] (0+3/3) Accurately ripped
07 [d46334e1|b3ebd8c4] (0+3/3) Accurately ripped
08 [0b43dc2c|c8e3868c] (0+3/3) Accurately ripped
09 [44449891|232028d1] (0+3/3) Accurately ripped
10 [170d529c|5058090b] (0+3/3) Accurately ripped
11 [7a8cdd5e|98f539cb] (0+3/3) Accurately ripped

Track Peak [ CRC32 ] [W/O NULL] [ LOG ]
– 98,8 [523AE9B9] [3134CA55] CRC32
01 98,8 [68B538CC] [1BD3CBCC]
02 98,8 [91DBA68F] [D53BA2DA]
03 98,8 [73BAD98C] [29299AAB]
04 98,8 [D0E130EE] [5691DECD]
05 98,8 [767A3496] [3B501401]
06 98,8 [A68F21EC] [57718765]
07 98,8 [7F2F3AA3] [5BF9803D]
08 98,8 [569DA40C] [43DBB9B2]
09 98,8 [387D88F1] [5D857D90]
10 98,8 [A572858E] [87A43B75]
11 98,8 [553C1EB2] [1D785781]

Thanks to konserva42

See also:
Wicked Minds - 2 Albums (2004-2006)
Wicked Minds - Visioni, Deliri E Illusioni (2011)