Tags
Language
Tags

Elisabeth Schwarzkopf, Wilhelm Furtwängler - A Hugo Wolf Recital (Salzburg Festival, 12 August 1953) (2019)

Posted By: ArlegZ
Elisabeth Schwarzkopf, Wilhelm Furtwängler - A Hugo Wolf Recital (Salzburg Festival, 12 August 1953) (2019)

Elisabeth Schwarzkopf, Wilhelm Furtwängler - A Hugo Wolf Recital (Salzburg Festival, 12 August 1953) (2019)
EAC | FLAC | Image (Cue & Log) ~ 181 Mb | Total time: 65:11 | Scans included
Classical | Label: Warner Classics ‎| # 0190295539283 | Recorded: 1953

It is perhaps the songs of Hugo Wolf that most closely define Elisabeth Schwarzkopf’s subtle art as a recitalist. At the Salzburg Festival in 1953 she marked the 50th anniversary of the composer’s death in a memorable collaboration with Wilhelm Furtwängler, who – having conducted her frequently in opera and oratorio – here became her accompanist. As the producer Walter Legge wrote: “We must be grateful that this extraordinary occasion was recorded not only for us but also for posterity.”

Performer:
Elisabeth Schwarzkopf, soprano
Wilhelm Furtwängler, piano

Track List:
Mörike-Lieder
01. Im Frühling
02. Elfenlied
03. Lebe wohl
04. Schlafendes Jesuskind
Goethe-Lieder
05. Phänomen
06. Die Spröde
07. Die Bekehrte
08. Anakreons Grab
09. Blumengruß
10. Epiphanias
Italienisches Liederbuch
11. Wie lange schon
12. Was soll der Zorn
13. Nein, junger Herr
14. Mein Liebster hat zu Tische mich geladen
Spanisches Liederbuch
15. Bedeckt mich mit Blumen
16. Herr, was trägt der Boden her
17. In dem Schatten meiner Locken
18. Mögen alle bösen Zungen
19. Wie glänzt der helle Mond
20. Wiegenlied im Sommer
Eichendorff-Lieder
21. Nachtzauber
22. Die Zigeunerin


Exact Audio Copy V1.3 from 2. September 2016

EAC extraction logfile from 25. September 2019, 22:48

Elisabeth Schwarzkopf, Wilhelm Furtwängler / A Hugo Wolf Recital

Used drive : ASUS SDRW-08U7M-U Adapter: 1 ID: 0

Read mode : Secure
Utilize accurate stream : Yes
Defeat audio cache : Yes
Make use of C2 pointers : No

Read offset correction : 6
Overread into Lead-In and Lead-Out : No
Fill up missing offset samples with silence : Yes
Delete leading and trailing silent blocks : No
Null samples used in CRC calculations : Yes
Used interface : Native Win32 interface for Win NT & 2000

Used output format : User Defined Encoder
Selected bitrate : 128 kBit/s
Quality : High
Add ID3 tag : No
Command line compressor : C:\Program Files (x86)\Exact Audio Copy\Flac\flac.exe
Additional command line options : -V -8 -T "Date=%year%" -T "Genre=%genre%" %source%


TOC of the extracted CD

Track | Start | Length | Start sector | End sector
––––––––––––––––––––––––––––-
1 | 0:00.00 | 6:11.73 | 0 | 27897
2 | 6:11.73 | 1:52.41 | 27898 | 36338
3 | 8:04.39 | 2:15.73 | 36339 | 46536
4 | 10:20.37 | 3:55.23 | 46537 | 64184
5 | 14:15.60 | 2:10.06 | 64185 | 73940
6 | 16:25.66 | 2:10.68 | 73941 | 83758
7 | 18:36.59 | 3:03.40 | 83759 | 97523
8 | 21:40.24 | 3:02.73 | 97524 | 111246
9 | 24:43.22 | 1:36.13 | 111247 | 118459
10 | 26:19.35 | 4:41.73 | 118460 | 139607
11 | 31:01.33 | 2:16.46 | 139608 | 149853
12 | 33:18.04 | 2:02.56 | 149854 | 159059
13 | 35:20.60 | 1:03.00 | 159060 | 163784
14 | 36:23.60 | 1:13.64 | 163785 | 169323
15 | 37:37.49 | 3:13.42 | 169324 | 183840
16 | 40:51.16 | 2:57.39 | 183841 | 197154
17 | 43:48.55 | 2:30.73 | 197155 | 208477
18 | 46:19.53 | 2:06.21 | 208478 | 217948
19 | 48:25.74 | 3:44.50 | 217949 | 234798
20 | 52:10.49 | 3:58.19 | 234799 | 252667
21 | 56:08.68 | 5:30.09 | 252668 | 277426
22 | 61:39.02 | 3:32.05 | 277427 | 293331


Range status and errors

Selected range

Filename C:\temp\A Hugo Wolf Recital - Schwarzkopf, Furtwangler - 2019\A Hugo Wolf Recital.wav

Peak level 69.2 %
Extraction speed 4.9 X
Range quality 100.0 %
Test CRC 15446DCE
Copy CRC 15446DCE
Copy OK

No errors occurred


AccurateRip summary

Track 1 cannot be verified as accurate (confidence 13) [E29224B3], AccurateRip returned [42A2D1FF] (AR v2)
Track 2 cannot be verified as accurate (confidence 13) [072AD092], AccurateRip returned [D46B0F49] (AR v2)
Track 3 cannot be verified as accurate (confidence 13) [66CB8611], AccurateRip returned [74EDD5EC] (AR v2)
Track 4 cannot be verified as accurate (confidence 13) [90C398C8], AccurateRip returned [01C0E79C] (AR v2)
Track 5 cannot be verified as accurate (confidence 13) [B7E33EDF], AccurateRip returned [8E3D07A8] (AR v2)
Track 6 cannot be verified as accurate (confidence 13) [2ABE7D6A], AccurateRip returned [569AD041] (AR v2)
Track 7 cannot be verified as accurate (confidence 13) [227EC4C0], AccurateRip returned [77030C49] (AR v2)
Track 8 cannot be verified as accurate (confidence 13) [3CCA15E2], AccurateRip returned [D86D70BC] (AR v2)
Track 9 cannot be verified as accurate (confidence 13) [1F1970D4], AccurateRip returned [9E109837] (AR v2)
Track 10 cannot be verified as accurate (confidence 13) [F0FB9297], AccurateRip returned [2CAF9EDC] (AR v2)
Track 11 cannot be verified as accurate (confidence 13) [DD869E54], AccurateRip returned [E4D9ABE8] (AR v2)
Track 12 cannot be verified as accurate (confidence 13) [99AC28D6], AccurateRip returned [0815BE87] (AR v2)
Track 13 cannot be verified as accurate (confidence 13) [29975FDA], AccurateRip returned [CDE3A4D6] (AR v2)
Track 14 cannot be verified as accurate (confidence 13) [3ACE7B4E], AccurateRip returned [94271EF1] (AR v2)
Track 15 cannot be verified as accurate (confidence 13) [147EDBCA], AccurateRip returned [96ACBCE2] (AR v2)
Track 16 cannot be verified as accurate (confidence 13) [C139DC1C], AccurateRip returned [36DCD739] (AR v2)
Track 17 cannot be verified as accurate (confidence 13) [7CFF3FA4], AccurateRip returned [E94459EB] (AR v2)
Track 18 cannot be verified as accurate (confidence 13) [320C28AC], AccurateRip returned [2924E962] (AR v2)
Track 19 cannot be verified as accurate (confidence 13) [2DC9D269], AccurateRip returned [BF57913A] (AR v2)
Track 20 cannot be verified as accurate (confidence 13) [4A8B8297], AccurateRip returned [2E03ABCC] (AR v2)
Track 21 cannot be verified as accurate (confidence 13) [2B4215EE], AccurateRip returned [353DBC98] (AR v2)
Track 22 cannot be verified as accurate (confidence 12) [E1926A08], AccurateRip returned [F8F177C8] (AR v2)

No tracks could be verified as accurate
You may have a different pressing from the one(s) in the database

End of status report

==== Log checksum 37CE5B77494EE9041D50D9897981E819AA8D2307679090C9C045FA6BA7A7B3D3 ====

Elisabeth Schwarzkopf, Wilhelm Furtwängler - A Hugo Wolf Recital (Salzburg Festival, 12 August 1953) (2019)

Thanks to the original releaser