Subcategories
Tags
Language
Tags

Elizabeth Wallfisch, Jeanne Lamon, Tafelmusik Baroque Orchestra - Vivaldi: L'Estro Armonico (2007)

Posted By: ArlegZ
Elizabeth Wallfisch, Jeanne Lamon, Tafelmusik Baroque Orchestra - Vivaldi: L'Estro Armonico (2007)

Elizabeth Wallfisch, Jeanne Lamon, Tafelmusik Baroque Orchestra - Vivaldi: L'Estro Armonico (2007)
EAC | FLAC | Image (Cue & Log) ~ 353 Mb + 2,38 Gb (dvd bonus) | Total time: 63:30+54:07 | Scans included
Classical | Label: Sony | # 88697190442 | Recorded: 2007

The performances are scintillating, dynamic, articulate, and vibrant, the virtuoso violin solos by Elizabeth Wallfisch occupying a playfully precarious edge between daring excitement and temporal excess–a stance joined in equal measure by her fellow soloists and her very fine orchestral partners. This is Vivaldi performance uninhibited by self-conscious stylistic gestures or distracting "period" mannerisms–it's just informed, virtuosic ensemble playing.
–David Vernier

Great energy derived from crisp articulation…Tafelmusik’s 13 strings, impeccably in tune, create a taut ensemble while slow movements are treated to beautifully expressive playing…
– BBC Music Magazine

Performer:
Elizabeth Wallfisch, violin soloist
Tafelmusik Baroque Orchestra
Directed by Jeanne Lamon

Track List:
Concerto No.6 in A minor for solo violin (RV 356)
01. I. Allegro
02. II. Largo
03. III. Presto
Concerto No.1 in D major for 4 violins & violoncello (RV 549)
04. I. Allegro
05. II. Largo e spiccato
06. III. Allegro
Concerto No.2 in G minor for 2 violins & violoncello (RV 578)
07. I. Adagio e spiccato
08. II. Allegro
09. III. Langhetto
10. IV. Allegro
Concerto No.3 in G major for solo violin (RV 310)
11. I. Allegro
12. II. Largo
13. III. Allegro
Concerto No.11 in D minor for 2 violins & violoncello (RV 565)
14. I. Allegro
15. II. Adagio e spiccato
16. III. Allegro
17. IV. Largo e spiccato
18. V. Allegro
Concerto No.5 in A major for 2 violins (RV 519)
19. I. Allegro
20. II. Largo
21. III. Allegro
Concerto No.8 in A minor for 2 violins (RV 522)
22. I. Allegro
23. II. Langhetto e spiritoso
24. III. Allegro
Concerto No.12 in E major for solo violin (RV 265)
25. I. Allegro
26. II. Largo
27. III. Allegro
Bonus DVD: The Four Seasons Mosaic


Exact Audio Copy V1.6 from 23. October 2020

EAC extraction logfile from 21. June 2021, 15:23

Elizabeth Wallfisch, Jeanne Lamon, Tafelmusik Baroque Orchestra / Vivaldi - L'Estro Armonico

Used drive : PIONEER DVD-RW DVR-218L Adapter: 1 ID: 0

Read mode : Secure
Utilize accurate stream : Yes
Defeat audio cache : Yes
Make use of C2 pointers : No

Read offset correction : 6
Overread into Lead-In and Lead-Out : No
Fill up missing offset samples with silence : Yes
Delete leading and trailing silent blocks : No
Null samples used in CRC calculations : Yes
Used interface : Native Win32 interface for Win NT & 2000

Used output format : User Defined Encoder
Selected bitrate : 128 kBit/s
Quality : High
Add ID3 tag : No
Command line compressor : C:\Program Files\Exact Audio Copy\Flac\flac.exe
Additional command line options : -V -8 -T "Date=%year%" -T "Genre=%genre%" %source%


TOC of the extracted CD

Track | Start | Length | Start sector | End sector
––––––––––––––––––––––––––––-
1 | 0:00.00 | 2:42.71 | 0 | 12220
2 | 2:42.71 | 2:01.60 | 12221 | 21355
3 | 4:44.56 | 2:10.45 | 21356 | 31150
4 | 6:55.26 | 2:49.15 | 31151 | 43840
5 | 9:44.41 | 2:31.67 | 43841 | 55232
6 | 12:16.33 | 2:19.08 | 55233 | 65665
7 | 14:35.41 | 1:22.26 | 65666 | 71841
8 | 15:57.67 | 2:18.52 | 71842 | 82243
9 | 18:16.44 | 2:14.10 | 82244 | 92303
10 | 20:30.54 | 2:33.15 | 92304 | 103793
11 | 23:03.69 | 2:07.67 | 103794 | 113385
12 | 25:11.61 | 2:13.18 | 113386 | 123378
13 | 27:25.04 | 2:11.03 | 123379 | 133206
14 | 29:36.07 | 0:42.16 | 133207 | 136372
15 | 30:18.23 | 0:24.70 | 136373 | 138242
16 | 30:43.18 | 2:33.38 | 138243 | 149755
17 | 33:16.56 | 2:39.05 | 149756 | 161685
18 | 35:55.61 | 2:17.51 | 161686 | 172011
19 | 38:13.37 | 2:56.69 | 172012 | 185280
20 | 41:10.31 | 1:31.21 | 185281 | 192126
21 | 42:41.52 | 2:29.26 | 192127 | 203327
22 | 45:11.03 | 3:22.17 | 203328 | 218494
23 | 48:33.20 | 2:54.07 | 218495 | 231551
24 | 51:27.27 | 3:25.56 | 231552 | 246982
25 | 54:53.08 | 3:19.03 | 246983 | 261910
26 | 58:12.11 | 2:48.65 | 261911 | 274575
27 | 61:01.01 | 2:27.00 | 274576 | 285600


Range status and errors

Selected range

Filename C:\ArlegZ\Vivaldi - L'Estro Armonico - Elizabeth Wallfisch, Jeanne Lamon.wav

Peak level 94.4 %
Extraction speed 2.0 X
Range quality 99.9 %
Test CRC 623187DC
Copy CRC 623187DC
Copy OK

No errors occurred


AccurateRip summary

Track 1 accurately ripped (confidence 4) [AE9D4FA0] (AR v2)
Track 2 accurately ripped (confidence 4) [75C192E6] (AR v2)
Track 3 accurately ripped (confidence 4) [69BB4084] (AR v2)
Track 4 accurately ripped (confidence 4) [D20CC6A8] (AR v2)
Track 5 accurately ripped (confidence 4) [2762905F] (AR v2)
Track 6 accurately ripped (confidence 4) [95B6914D] (AR v2)
Track 7 accurately ripped (confidence 4) [5E5AD047] (AR v2)
Track 8 accurately ripped (confidence 4) [AE03AFDB] (AR v2)
Track 9 accurately ripped (confidence 4) [5B036CF4] (AR v2)
Track 10 accurately ripped (confidence 4) [1E2CDE00] (AR v2)
Track 11 accurately ripped (confidence 3) [5880F480] (AR v2)
Track 12 accurately ripped (confidence 3) [E8620DA4] (AR v2)
Track 13 accurately ripped (confidence 3) [3AD3BC94] (AR v2)
Track 14 accurately ripped (confidence 3) [9F05C5ED] (AR v2)
Track 15 accurately ripped (confidence 3) [564F0792] (AR v2)
Track 16 accurately ripped (confidence 3) [D46FFAF9] (AR v2)
Track 17 accurately ripped (confidence 4) [41B6B697] (AR v2)
Track 18 accurately ripped (confidence 4) [5C1C9514] (AR v2)
Track 19 accurately ripped (confidence 4) [431FD2A7] (AR v2)
Track 20 accurately ripped (confidence 4) [4C8A3828] (AR v2)
Track 21 accurately ripped (confidence 4) [D12050EC] (AR v2)
Track 22 accurately ripped (confidence 4) [222BDF28] (AR v2)
Track 23 accurately ripped (confidence 4) [173D4201] (AR v2)
Track 24 accurately ripped (confidence 4) [90B837BB] (AR v2)
Track 25 accurately ripped (confidence 4) [93BBF1D8] (AR v2)
Track 26 accurately ripped (confidence 4) [6E5186A3] (AR v2)
Track 27 accurately ripped (confidence 3) [8123E1B0] (AR v2)

All tracks accurately ripped

End of status report

–– CUETools DB Plugin V2.1.6

[CTDB TOCID: 1iZzAsQNkXUX23UYHf03BroyAd0-] found
Submit result: 1iZzAsQNkXUX23UYHf03BroyAd0- has been confirmed
Track | CTDB Status
1 | (27/27) Accurately ripped
2 | (27/27) Accurately ripped
3 | (27/27) Accurately ripped
4 | (27/27) Accurately ripped
5 | (27/27) Accurately ripped
6 | (27/27) Accurately ripped
7 | (27/27) Accurately ripped
8 | (27/27) Accurately ripped
9 | (27/27) Accurately ripped
10 | (27/27) Accurately ripped
11 | (27/27) Accurately ripped
12 | (27/27) Accurately ripped
13 | (27/27) Accurately ripped
14 | (27/27) Accurately ripped
15 | (27/27) Accurately ripped
16 | (27/27) Accurately ripped
17 | (27/27) Accurately ripped
18 | (27/27) Accurately ripped
19 | (27/27) Accurately ripped
20 | (27/27) Accurately ripped
21 | (27/27) Accurately ripped
22 | (27/27) Accurately ripped
23 | (27/27) Accurately ripped
24 | (27/27) Accurately ripped
25 | (27/27) Accurately ripped
26 | (27/27) Accurately ripped
27 | (25/27) Accurately ripped


==== Log checksum 475104618F410A1C199A9E4540F430880C4D30BDE0F5819D837B5410D3D2C28E ====

Elizabeth Wallfisch, Jeanne Lamon, Tafelmusik Baroque Orchestra - Vivaldi: L'Estro Armonico (2007)