Tags
Language
Tags

Eloy - Destination (1992) [Japanese Ed. 1993] Re-up

Posted By: Andi_Deris
Eloy - Destination (1992) [Japanese Ed. 1993] Re-up

Eloy - Destination (1992) [Japanese Ed. 1993]
EAC Rip | FLAC: Image+Cue+Log | 387 Mb | MP3 CBR 320 kbps | 148 Mb | Scans | 53:35
Victor Ent. | VICP-5336
Progressive Rock, Space Rock

Destination is the fifteenth album by the German progressive rock band Eloy, released in 1992. It was the second album to be recorded with the new line-up of Frank Bornemann and Michael Gerlach. It also marked the return of Klaus-Peter Matziol, who last played with Eloy on the 1984 Metromania album.

Eloy - Destination (1992) [Japanese Ed. 1993] Re-up




Eloy - Destination (1992) [Japanese Ed. 1993] Re-up


Track Listing

01. Call Of The Wild (7:01)
02. Racing Shadows (7:12)
03. Destination (7:41)
04. Prisoner In Mind (4:27)
05. Silent Revolution (7:55)
06. Fire And Ice (5:12)
07. Eclipse Of Mankind (6:29)
08. Jeanne a'Arc (7:38)

Produced by Frank Bornemann

The Band

• Frank Bornemann - vocals, guitar
• Michael Gerlach - keyboards

*****
• Nico Baretta - drums
• Klaus-Peter Matziol - bass on "Silent revolution" and "Racing shadows"
• Detlev Goy - bass on "Jeanne d'Arc", "Fire and ice" and "Call of the wild"
• Helge Engelke - bass on "Destination", "Prisoner in mind", rhythm-guitars on "Prisoner in mind", acoustic-guitar and solo-guitar on "Fire and ice"
• Kai Steffen - solo-guitar on "Silent revolution"
• Lenny McDowell - flute on "Destination" and "Call of the wild"
• Classical Choir on "Jeanne d'Arc" arranged and conducted by Peter Chrastina

Exact Audio Copy V1.0 beta 3 from 29. August 2011

Отчёт EAC об извлечении, выполненном 18. июля 2014, 16:28

Eloy / Destination

Дисковод: hp DVD-RAM UJ8B1 Adapter: 0 ID: 0

Режим чтения : Достоверность
Использование точного потока : Да
Отключение кэша аудио : Да
Использование указателей C2 : Нет

Коррекция смещения при чтении : 6
Способность читать области Lead-in и Lead-out : Нет
Заполнение пропущенных сэмплов тишиной : Да
Удаление блоков с тишиной в начале и конце : Нет
При вычислениях CRC использовались нулевые сэмплы : Да
Интерфейс : Встроенный Win32-интерфейс для Win NT/2000

Выходной формат : Пользовательский кодировщик
Выбранный битрейт : 128 kBit/s
Качество : Высокий
Добавление ID3-тега : Нет
Утилита сжатия : C:\Program Files (x86)\Exact Audio Copy\Flac\flac.exe
Дополнительные параметры : -V -8 -T "Date=%year%" -T "Genre=%genre%" %source%


TOC извлечённого CD

Трек | Старт | Длительность | Начальный сектор | Конечный сектор
––––––––––––––––––––––––––––––––––-
1 | 0:00.37 | 7:01.62 | 37 | 31673
2 | 7:02.24 | 7:11.73 | 31674 | 64071
3 | 14:14.22 | 7:41.60 | 64072 | 98706
4 | 21:56.07 | 4:27.67 | 98707 | 118798
5 | 26:23.74 | 7:55.68 | 118799 | 154491
6 | 34:19.67 | 5:12.00 | 154492 | 177891
7 | 39:31.67 | 6:29.02 | 177892 | 207068
8 | 46:00.69 | 7:38.55 | 207069 | 241473


Характеристики диапазона извлечения и сообщения об ошибках

Выбранный диапазон

Имя файла E:\РАЗДАЧИ\Папки\Eloy-Destination\Eloy - Destination.wav

Пиковый уровень 96.3 %
Скорость извлечения 1.9 X
Качество диапазона 99.9 %
CRC теста DF7D0BCB
CRC копии DF7D0BCB
Копирование… OK

Ошибок не произошло


AccurateRip: сводка

Трек 1 отсутствует в базе данных
Трек 2 отсутствует в базе данных
Трек 3 отсутствует в базе данных
Трек 4 отсутствует в базе данных
Трек 5 отсутствует в базе данных
Трек 6 отсутствует в базе данных
Трек 7 отсутствует в базе данных
Трек 8 отсутствует в базе данных

Ни одного трека нет в базе AccurateRip

Конец отчёта

==== Контрольная сумма отчёта 25A07796B23488CC839A514CD7747B5A9E1A036CEFDEDF378E89E36F0B963796 ====


Many thanks to the original uploader: eloychik





Password: pass