Subcategories
Tags
Language
Tags

Emmanuelle Bertrand - Johann Sebastian Bach: Complete Cello Suites (2019)

Posted By: ArlegZ
Emmanuelle Bertrand - Johann Sebastian Bach: Complete Cello Suites (2019)

Emmanuelle Bertrand - Johann Sebastian Bach: Complete Cello Suites (2019)
EAC | FLAC | Image (Cue & Log) ~ 644 Mb | Total time: 134:24 | Scans included
Classical | Label: Harmonia Mundi | # HMM 902293.94 | Recorded: 2019

Recording Bach's six Cello Suites realized Emmanuelle Bertrand's most cherished dream. Her performance here features an exceptional instrument, built by Carlo Tononi in Venice in 1730. This cello, with it's deep and powerful sound, has been set up in 'Baroque' style (with gut strings and bow to match). In Bertrand's hands it proves to be the perfect choice for tackling one of the most impressive monuments in all western music.

Performer:
Emmanuelle Bertrand, baroque cello

Track List:
CD1:
Cello Suite No. 1 in G major, BWV1007
01. I. Prelude
02. II. Allemande
03. III. Courante
04. IV. Sarabande
05. V. Menuets 1 & 2
06. VI. Gigue
Cello Suite No. 2 in D minor, BWV1008
07. I. Prélude
08. II. Allemande
09. III. Courante
10. IV. Sarabande
11. V. Menuets 1 & 2
12. VI. Gigue
Cello Suite No. 3 in C major, BWV1009
13. I. Prelude
14. II. Allemande
15. III. Courante
16. IV. Sarabande
17. V. Bourrées 1 & 2
18. VI. Gigue
CD2:
Cello Suite No. 4 in E flat major, BWV1010
01. I. Prelude
02. II. Allemande
03. III. Courante
04. IV. Sarabande
05. V. Bourrées 1 & 2
06. VI. Gigue
Cello Suite No. 5 in C minor, BWV1011
07. I. Prelude
08. II. Allemande
09. III. Courante
10. IV. Sarabande
11. V. Gavottes 1 & 2
12. VI. Gigue
Cello Suite No. 6 in D major, BWV1012
13. I. Prélude
14. II. Allemande
15. III. Courante
16. IV. Sarabande
17. V. Gavottes 1 & 2
18. VI. Gigue


Exact Audio Copy V1.6 from 23. October 2020

EAC extraction logfile from 22. February 2021, 17:13

Johann Sebastian Bach; Emmanuelle Bertrand / Complete Cello Suites

Used drive : HL-DT-STDVDRAM GH24NSD5 Adapter: 1 ID: 0

Read mode : Secure
Utilize accurate stream : Yes
Defeat audio cache : Yes
Make use of C2 pointers : No

Read offset correction : 6
Overread into Lead-In and Lead-Out : No
Fill up missing offset samples with silence : Yes
Delete leading and trailing silent blocks : No
Null samples used in CRC calculations : Yes
Used interface : Native Win32 interface for Win NT & 2000

Used output format : User Defined Encoder
Selected bitrate : 1024 kBit/s
Quality : High
Add ID3 tag : No
Command line compressor : C:\Program Files (x86)\Exact Audio Copy\FLAC\FLAC.EXE
Additional command line options : -6 -V -T "ARTIST=%artist%" -T "TITLE=%title%" -T "ALBUM=%albumtitle%" -T "DATE=%year%" -T "TRACKNUMBER=%tracknr%" -T "GENRE=%genre%" -T "COMMENT=%comment%" -T "BAND=%albuminterpret%" -T "ALBUMARTIST=%albuminterpret%" -T "COMPOSER=%composer%" %haslyrics%–tag-from-file=LYRICS="%lyricsfile%"%haslyrics% -T "DISCNUMBER=%cdnumber%" -T "TOTALDISCS=%totalcds%" -T "TOTALTRACKS=%numtracks%" %hascover%–picture="%coverfile%"%hascover% %source% -o %dest%


TOC of the extracted CD

Track | Start | Length | Start sector | End sector
––––––––––––––––––––––––––––-
1 | 0:00.00 | 2:28.44 | 0 | 11143
2 | 2:28.44 | 4:18.22 | 11144 | 30515
3 | 6:46.66 | 2:35.09 | 30516 | 42149
4 | 9:22.00 | 3:04.66 | 42150 | 56015
5 | 12:26.66 | 2:59.60 | 56016 | 69500
6 | 15:26.51 | 1:46.00 | 69501 | 77450
7 | 17:12.51 | 3:27.57 | 77451 | 93032
8 | 20:40.33 | 3:14.25 | 93033 | 107607
9 | 23:54.58 | 1:53.04 | 107608 | 116086
10 | 25:47.62 | 5:02.73 | 116087 | 138809
11 | 30:50.60 | 2:58.08 | 138810 | 152167
12 | 33:48.68 | 2:28.33 | 152168 | 163300
13 | 36:17.26 | 3:29.26 | 163301 | 179001
14 | 39:46.52 | 3:45.40 | 179002 | 195916
15 | 43:32.17 | 3:06.37 | 195917 | 209903
16 | 46:38.54 | 4:05.08 | 209904 | 228286
17 | 50:43.62 | 3:19.50 | 228287 | 243261
18 | 54:03.37 | 3:13.06 | 243262 | 257742


Range status and errors

Selected range

Filename I:\Rips\Bach JS - Complete Cello Suites - Bertrand\CD1\Johann Sebastian Bach - Emmanuelle Bertrand - Complete Cello Suites (Disc1).wav

Peak level 96.6 %
Extraction speed 5.7 X
Range quality 100.0 %
Test CRC DFF6CF95
Copy CRC DFF6CF95
Copy OK

No errors occurred


AccurateRip summary

Track 1 not present in database
Track 2 not present in database
Track 3 not present in database
Track 4 not present in database
Track 5 not present in database
Track 6 not present in database
Track 7 not present in database
Track 8 not present in database
Track 9 not present in database
Track 10 not present in database
Track 11 not present in database
Track 12 not present in database
Track 13 not present in database
Track 14 not present in database
Track 15 not present in database
Track 16 not present in database
Track 17 not present in database
Track 18 not present in database

None of the tracks are present in the AccurateRip database

End of status report

–– CUETools DB Plugin V2.1.6

[CTDB TOCID: LhVQqoxlXbqitCA4C0tfRqq.a28-] found
Submit result: LhVQqoxlXbqitCA4C0tfRqq.a28- has been confirmed
Track | CTDB Status
1 | (7/8) Accurately ripped
2 | (7/8) Accurately ripped
3 | (7/8) Accurately ripped
4 | (7/8) Accurately ripped
5 | (7/8) Accurately ripped
6 | (8/8) Accurately ripped
7 | (8/8) Accurately ripped
8 | (8/8) Accurately ripped
9 | (8/8) Accurately ripped
10 | (8/8) Accurately ripped
11 | (8/8) Accurately ripped
12 | (8/8) Accurately ripped
13 | (8/8) Accurately ripped
14 | (8/8) Accurately ripped
15 | (8/8) Accurately ripped
16 | (8/8) Accurately ripped
17 | (8/8) Accurately ripped
18 | (8/8) Accurately ripped


==== Log checksum 39C47C1FF382C90CFFCFD37C3DCA603260F0E62D779F426D5190E0C58735464A ====


Exact Audio Copy V1.6 from 23. October 2020

EAC extraction logfile from 22. February 2021, 17:33

Johann Sebastian Bach; Emmanuelle Bertrand / Complete Cello Suites

Used drive : HL-DT-STDVDRAM GH24NSD5 Adapter: 1 ID: 0

Read mode : Secure
Utilize accurate stream : Yes
Defeat audio cache : Yes
Make use of C2 pointers : No

Read offset correction : 6
Overread into Lead-In and Lead-Out : No
Fill up missing offset samples with silence : Yes
Delete leading and trailing silent blocks : No
Null samples used in CRC calculations : Yes
Used interface : Native Win32 interface for Win NT & 2000

Used output format : User Defined Encoder
Selected bitrate : 1024 kBit/s
Quality : High
Add ID3 tag : No
Command line compressor : C:\Program Files (x86)\Exact Audio Copy\FLAC\FLAC.EXE
Additional command line options : -6 -V -T "ARTIST=%artist%" -T "TITLE=%title%" -T "ALBUM=%albumtitle%" -T "DATE=%year%" -T "TRACKNUMBER=%tracknr%" -T "GENRE=%genre%" -T "COMMENT=%comment%" -T "BAND=%albuminterpret%" -T "ALBUMARTIST=%albuminterpret%" -T "COMPOSER=%composer%" %haslyrics%–tag-from-file=LYRICS="%lyricsfile%"%haslyrics% -T "DISCNUMBER=%cdnumber%" -T "TOTALDISCS=%totalcds%" -T "TOTALTRACKS=%numtracks%" %hascover%–picture="%coverfile%"%hascover% %source% -o %dest%


TOC of the extracted CD

Track | Start | Length | Start sector | End sector
––––––––––––––––––––––––––––-
1 | 0:00.00 | 4:14.70 | 0 | 19119
2 | 4:14.70 | 3:49.61 | 19120 | 36355
3 | 8:04.56 | 3:26.29 | 36356 | 51834
4 | 11:31.10 | 4:03.03 | 51835 | 70062
5 | 15:34.13 | 5:01.65 | 70063 | 92702
6 | 20:36.03 | 2:43.16 | 92703 | 104943
7 | 23:19.19 | 5:30.35 | 104944 | 129728
8 | 28:49.54 | 5:14.46 | 129729 | 153324
9 | 34:04.25 | 2:03.28 | 153325 | 162577
10 | 36:07.53 | 3:53.04 | 162578 | 180056
11 | 40:00.57 | 4:46.01 | 180057 | 201507
12 | 44:46.58 | 2:26.64 | 201508 | 212521
13 | 47:13.47 | 4:24.68 | 212522 | 232389
14 | 51:38.40 | 7:31.37 | 232390 | 266251
15 | 59:10.02 | 3:39.47 | 266252 | 282723
16 | 62:49.49 | 5:40.70 | 282724 | 308293
17 | 68:30.44 | 4:16.18 | 308294 | 327511
18 | 72:46.62 | 4:22.38 | 327512 | 347199


Range status and errors

Selected range

Filename I:\Rips\Bach JS - Complete Cello Suites - Bertrand\CD2\Johann Sebastian Bach - Emmanuelle Bertrand - Complete Cello Suites (Disc2).wav

Peak level 94.7 %
Extraction speed 8.1 X
Range quality 100.0 %
Test CRC 8812555C
Copy CRC 8812555C
Copy OK

No errors occurred


AccurateRip summary

Track 1 not present in database
Track 2 not present in database
Track 3 not present in database
Track 4 not present in database
Track 5 not present in database
Track 6 not present in database
Track 7 not present in database
Track 8 not present in database
Track 9 not present in database
Track 10 not present in database
Track 11 not present in database
Track 12 not present in database
Track 13 not present in database
Track 14 not present in database
Track 15 not present in database
Track 16 not present in database
Track 17 not present in database
Track 18 not present in database

None of the tracks are present in the AccurateRip database

End of status report

–– CUETools DB Plugin V2.1.6

[CTDB TOCID: QxjljXjWVxhYgYqAQAh9nYXJ3aw-] found
Submit result: QxjljXjWVxhYgYqAQAh9nYXJ3aw- has been confirmed
Track | CTDB Status
1 | ( 9/10) Accurately ripped
2 | ( 9/10) Accurately ripped
3 | (10/10) Accurately ripped
4 | (10/10) Accurately ripped
5 | (10/10) Accurately ripped
6 | (10/10) Accurately ripped
7 | (10/10) Accurately ripped
8 | (10/10) Accurately ripped
9 | (10/10) Accurately ripped
10 | (10/10) Accurately ripped
11 | (10/10) Accurately ripped
12 | ( 9/10) Accurately ripped
13 | ( 9/10) Accurately ripped
14 | ( 9/10) Accurately ripped
15 | (10/10) Accurately ripped
16 | (10/10) Accurately ripped
17 | (10/10) Accurately ripped
18 | (10/10) Accurately ripped


==== Log checksum 8D6E1FF500008CACBBFFF846011D032C99E51D2DD0F8D61F18F7477E29372DB8 ====

Emmanuelle Bertrand - Johann Sebastian Bach: Complete Cello Suites (2019)

Thanks to the original releaser