Subcategories

Emmanuelle Haim, Le Concert d'Astree - Handel: Il trionfo del Tempo e del Disinganno (2007)

Posted By: ArlegZ
Emmanuelle Haim, Le Concert d'Astree - Handel: Il trionfo del Tempo e del Disinganno (2007)

Emmanuelle Haïm, Le Concert d'Astrée - Handel: Il trionfo del Tempo e del Disinganno (2007)
EAC | FLAC | Image (Cue & Log) ~ 615 Mb | Total time: 72:20+73:12 | Scans included
Classical | Label: Virqin Classics | # 3 63428 2 | Recorded: 2006

Handel wrote the secular oratorio Il trionfo del Tempo e del Disinganno (The triumph of Time and of Enlightenment) to the text of one of his patrons, Cardinal Benedetto Pamphili, in Rome in 1707. The libretto, which doesn't stand up to close logical scrutiny, centers on Beauty, who must choose between self-indulgent Pleasure and the austerity of allegiance to Time and Enlightenment. Needless to say, any patron entering the theater for the performance, having noted the title on the playbill, would have no doubt about the outcome of the struggle, so dramatic suspense cannot have been one of the inducements for an eighteenth century audience. The rewards, however, are real, most notably Handel's remarkably fertile inventiveness and musical ingenuity, which justified sitting through a two-and-a-half-hour performance that was guaranteed to be a dramatic non-starter. Handel keeps recitatives to a minimum, and the oratorio is rich in musical substance and variety. With this CD there's the added attraction of stellar vocal and instrumental performances. Emmanuelle Haïm leads le Concert d'Astrée in a light and sparkling reading, and the energy never lags. Soprano Natalie Dessay as Bellezza is vulnerably delicate, but also has reserves of temperamental strength, and she brings real warmth to the personification. As Piacere, mezzo-soprano Ann Hallenberg is beguilingly tempting, displaying more than a little naughtiness, and she sings with absolute security and ravishing tonal beauty. Alto Sonia Prina, as Disingenno, is a genuine coloratura alto, with dazzling agility as well as a full, pure tone. Pavol Brslik, as Tempo, has a light but focused and pleasing tenor, and he nails the composer's virtuosic demands. Virgin's sound is immaculate, with depth and ideal resonance.
–Stephen Eddins

Cast:
Bellezza - Natalie Dessay
Piacere - Ann Hallenberg
Disinganno - Sonia Prina
Tempo - Pavol Breslik
Le Concert d'Astrée
Conductor - Emmanuelle Haïm

Track List:
CD1:
01. Sonata: Allegro - Adagio - Allegro
02. Parte Prima. Aria: Fido specchio, in te vagheggio (Bellezza)
03. Recitativo: Io, che sono il Piacere (Piacere, Bellezza)
04. Aria: Fosco genio, e nero duolo (Piacere)
05. Recitativo: Ed io, che 'l Tempo sono (Tempo, Disinganno)
06. Aria: Se la bellezza perde vaghezza (Disinganno)
07. Recitativo: Dunque si prendan l'armi (Piacere, Bellezza, Tempo, Disinganno)
08. Aria: Una schiera di piaceri (Bellezza)
09. Recitativo: I colossi del sole (Tempo)
10. Aria: Urne voi, che racchiudete (Tempo)
11. Recitativo: Sono troppo crudeli i tuoi consigli (Piacere)
12. Duetto: Il voler nel fior degl'anni (Bellezza, Piacere)
13. Recitativo: Della vita mortale (Disinganno, Bellezza)
14. Aria: Un pensiero nemico di pace (Bellezza)
15. Recitativo: Folle, tu nieghi il Tempo (Disinganno, Piacere, Bellezza)
16. Aria: Nasce l'uomo (Tempo)
17. Aria: L'uomo sempre se stesso distrugge (Disinganno)
18. Recitativo: Questa è la reggia mia (Piacere)
19. Sonata: Taci: qual suono ascolto? (Bellezza)
20. Aria: Un leggiadro giovinetto (Piacere)
21. Recitativo: Ha nella destra l'ali (Bellezza)
22. Aria: Venga il Tempo (Bellezza)
23. Aria: Crede l'uom ch'egli riposi (Disinganno)
24. Recitativo: Tu credi che sia lungi (Tempo, Bellezza)
25. Aria: Folle, dunque tu sola presumi (Disinganno, Tempo)
26. Recitativo: La reggia del Piacere vedesti (Disinganno, Tempo)
27. Quartetto: Se non sei piu ministro di pene (Bellezza, Piacere, Disinganno, Tempo)
CD2:
01. Parte Seconda. Recitativo: Se del falso piacere (Tempo)
02. Aria: Chiudi, chiudi i vaghi rai (Piacere)
03. Recitativo: In tre parti divise (Tempo)
04. Aria: Io sperai trovar nel vero (Bellezza)
05. Recitativo: Tu vivi invan dolente (Piacere)
06. Aria: Tu giurasti di mai non lasciarmi (Piacere)
07. Recitativo: Sguardo, ch infermo ai rai del sol si volge (Tempo)
08. Aria: Io vorrei due cori in seno (Bellezza, Disinganno)
09. Recitativo: Io giurerei, che tu chiudesti i lumi (Disinganno, Bellezza)
10. Aria: Più non cura (Disinganno)
11. Recitativo: È un ostinato errore (Tempo)
12. Aria: È ben folle quel nocchier (Tempo)
13. Recitativo: Dicesti il vero, e benché tardi intesi (Bellezza)
14. Quartetto: Voglio Tempo per risolvere (Bellezza, Tempo, Disinganno, Piacere)
15. Recitativo: Presso la reggia ove il Piacer risiede (Bellezza, Disinganno)
16. Aria: Lascia la spina (Piacere)
17. Recitativo: Con troppo chiare note (Bellezza, Disinganno)
18. Aria: Voglio cangiar desio (Bellezza)
19. Recitativo: Or che tiene la destra (Bellezza, Piacere, Disinganno)
20. Aria: Chi già fu del biondo crine (Disinganno)
21. Recitativo: Ma che veggio, che miro? (Bellezza)
22. Aria: Ricco pino nel cammino (Bellezza)
23. Recitativo: Sì, bella Penitenza (Bellezza)
24. Duetto: Il bel pianto dell'aurora (Disinganno, Tempo)
25. Recitativo: Piacer, che meco già vivesti (Bellezza)
26. Aria: Come nembo que fugge col vento (Piacere)
27. Recitativo: Pure del Cielo intelligenze eterne (Bellezza)
28. Aria: Tu del Ciel ministro eletto (Bellezza)


Exact Audio Copy V1.3 from 2. September 2016

EAC extraction logfile from 16. January 2019, 18:20

Emmanuelle Haïm, Le Concert d'Astrée / Handel - Il trionfo del Tempo e del Disinganno CD1

Used drive : HL-DT-STDVDRAM GH24NS95 Adapter: 1 ID: 0

Read mode : Secure
Utilize accurate stream : Yes
Defeat audio cache : Yes
Make use of C2 pointers : No

Read offset correction : 6
Overread into Lead-In and Lead-Out : No
Fill up missing offset samples with silence : Yes
Delete leading and trailing silent blocks : No
Null samples used in CRC calculations : Yes
Used interface : Native Win32 interface for Win NT & 2000

Used output format : User Defined Encoder
Selected bitrate : 128 kBit/s
Quality : High
Add ID3 tag : No
Command line compressor : C:\Program Files\Exact Audio Copy\FLAC\FLAC.EXE
Additional command line options : -V -8 -T "Date=%year%" -T "Genre=%genre%" %source%


TOC of the extracted CD

Track | Start | Length | Start sector | End sector
––––––––––––––––––––––––––––-
1 | 0:00.00 | 4:54.29 | 0 | 22078
2 | 4:54.29 | 4:59.15 | 22079 | 44518
3 | 9:53.44 | 0:24.74 | 44519 | 46392
4 | 10:18.43 | 3:08.14 | 46393 | 60506
5 | 13:26.57 | 0:21.09 | 60507 | 62090
6 | 13:47.66 | 4:03.70 | 62091 | 80385
7 | 17:51.61 | 0:15.59 | 80386 | 81569
8 | 18:07.45 | 3:28.55 | 81570 | 97224
9 | 21:36.25 | 0:15.24 | 97225 | 98373
10 | 21:51.49 | 7:04.35 | 98374 | 130208
11 | 28:56.09 | 0:10.02 | 130209 | 130960
12 | 29:06.11 | 5:01.69 | 130961 | 153604
13 | 34:08.05 | 0:29.01 | 153605 | 155780
14 | 34:37.06 | 3:54.12 | 155781 | 173342
15 | 38:31.18 | 0:56.65 | 173343 | 177607
16 | 39:28.08 | 2:14.22 | 177608 | 187679
17 | 41:42.30 | 2:35.06 | 187680 | 199310
18 | 44:17.36 | 1:30.27 | 199311 | 206087
19 | 45:47.63 | 2:35.01 | 206088 | 217713
20 | 48:22.64 | 3:43.52 | 217714 | 234490
21 | 52:06.41 | 0:13.08 | 234491 | 235473
22 | 52:19.49 | 3:18.08 | 235474 | 250331
23 | 55:37.57 | 7:53.31 | 250332 | 285837
24 | 63:31.13 | 0:50.67 | 285838 | 289654
25 | 64:22.05 | 3:28.70 | 289655 | 305324
26 | 67:51.00 | 0:18.63 | 305325 | 306737
27 | 68:09.63 | 4:09.16 | 306738 | 325428


Range status and errors

Selected range

Filename C:\Program Files\Exact Audio Copy\Flac\Handel - Il trionfo del Tempo e del Disinganno CD1.wav

Peak level 100.0 %
Extraction speed 8.2 X
Range quality 100.0 %
Test CRC 5E28B0B6
Copy CRC 5E28B0B6
Copy OK

No errors occurred

End of status report

==== Log checksum 58AD5E6A4DB9CF5F5256CCB23E94E2AF7D1C26011B5B48476C574EBEA90F746


Exact Audio Copy V1.3 from 2. September 2016

EAC extraction logfile from 16. January 2019, 18:45

Emmanuelle Haïm, Le Concert d'Astrée / Handel - Il trionfo del Tempo e del Disinganno CD2

Used drive : HL-DT-STDVDRAM GH24NS95 Adapter: 1 ID: 0

Read mode : Secure
Utilize accurate stream : Yes
Defeat audio cache : Yes
Make use of C2 pointers : No

Read offset correction : 6
Overread into Lead-In and Lead-Out : No
Fill up missing offset samples with silence : Yes
Delete leading and trailing silent blocks : No
Null samples used in CRC calculations : Yes
Used interface : Native Win32 interface for Win NT & 2000

Used output format : User Defined Encoder
Selected bitrate : 128 kBit/s
Quality : High
Add ID3 tag : No
Command line compressor : C:\Program Files\Exact Audio Copy\FLAC\FLAC.EXE
Additional command line options : -V -8 -T "Date=%year%" -T "Genre=%genre%" %source%


TOC of the extracted CD

Track | Start | Length | Start sector | End sector
––––––––––––––––––––––––––––-
1 | 0:00.00 | 0:59.52 | 0 | 4476
2 | 0:59.52 | 3:21.06 | 4477 | 19557
3 | 4:20.58 | 0:46.29 | 19558 | 23036
4 | 5:07.12 | 6:57.47 | 23037 | 54358
5 | 12:04.59 | 0:13.01 | 54359 | 55334
6 | 12:17.60 | 3:58.25 | 55335 | 73209
7 | 16:16.10 | 0:21.06 | 73210 | 74790
8 | 16:37.16 | 3:45.16 | 74791 | 91681
9 | 20:22.32 | 0:39.31 | 91682 | 94637
10 | 21:01.63 | 4:51.71 | 94638 | 116533
11 | 25:53.59 | 0:12.14 | 116534 | 117447
12 | 26:05.73 | 2:15.38 | 117448 | 127610
13 | 28:21.36 | 0:18.24 | 127611 | 128984
14 | 28:39.60 | 3:53.57 | 128985 | 146516
15 | 32:33.42 | 1:14.01 | 146517 | 152067
16 | 33:47.43 | 6:25.70 | 152068 | 181012
17 | 40:13.38 | 0:28.02 | 181013 | 183114
18 | 40:41.40 | 5:17.10 | 183115 | 206899
19 | 45:58.50 | 0:16.64 | 206900 | 208163
20 | 46:15.39 | 2:12.36 | 208164 | 218099
21 | 48:28.00 | 0:39.09 | 218100 | 221033
22 | 49:07.09 | 4:03.09 | 221034 | 239267
23 | 53:10.18 | 0:45.11 | 239268 | 242653
24 | 53:55.29 | 6:24.65 | 242654 | 271518
25 | 60:20.19 | 0:28.60 | 271519 | 273678
26 | 60:49.04 | 5:29.06 | 273679 | 298359
27 | 66:18.10 | 0:46.74 | 298360 | 301883
28 | 67:05.09 | 6:05.31 | 301884 | 329289


Range status and errors

Selected range

Filename C:\Program Files\Exact Audio Copy\Flac\Handel - Il trionfo del Tempo e del Disinganno CD2.wav

Peak level 100.0 %
Extraction speed 8.2 X
Range quality 100.0 %
Test CRC CD74F163
Copy CRC CD74F163
Copy OK

No errors occurred

End of status report

==== Log checksum AB42A844CBE04C47195D8C6DA5320895B50F2146AB3DB1E8CD1201322E2D5B48 ====

Emmanuelle Haim, Le Concert d'Astree - Handel: Il trionfo del Tempo e del Disinganno (2007)