Tags
Language
Tags

Emőke Baráth, Francesco Corti, Il Pomo d'Oro - Voglio cantar: Strozzi, Cavalli, Cesti, Marini, Merula (2019)

Posted By: ArlegZ
Emőke Baráth, Francesco Corti, Il Pomo d'Oro - Voglio cantar: Strozzi, Cavalli, Cesti, Marini, Merula (2019)

Emőke Baráth, Francesco Corti, Il Pomo d'Oro - Voglio cantar: Strozzi, Cavalli, Cesti, Marini, Merula (2019)
EAC | FLAC | Image (Cue & Log) ~ 439 Mb | Total time: 80:00 | Scans included
Classical | Label: Erato | # 9029563221 | Recorded: 2018

Voglio cantar – ‘I want to sing’ – is Emőke Baráth’s first solo album for Erato. The young Hungarian soprano has built a special reputation in Baroque music and the prime focus here is on Barbara Strozzi, who made her name as a composer in 17th century Venice. “She must have been quite a revolutionary personality,” says Emőke Baráth. “Her music is improvisational, intuitive, even rhapsodic … She was clearly a passionate woman with a strong dramatic sense.” Baráth is joined by Il Pomo d’Oro, conducted by Francesco Corti.

Performer:
Emőke Baráth, soprano
Il Pomo d'Oro
Francesco Corti, conductor

Track List:
Barbara Strozzi (1619-1677)
01. Arie, Op. 8 No. 6: "Che si può fare"
02. Diporti di Euterpe, Op. 7 No. 10: "Mi fa rider la speranza"
03. Diporti di Euterpe, Op. 7 No. 4: Lamento (Lagrime mie)
Biagio Marini (1594-1663)
04. Affetti musicali, Op. 1 No. 1: Sinfonia grave La Zorzi
Pietro Antonio Cesti (1623-1669)
05. "Speranza ingannatrice"
Tarquinio Merula (1595-1665)
06. Canzoni overo sonate concertate per chiesa e camera, Book 3, Op. 12: XIX. Ballo detto Eccardo
Barbara Strozzi
07. Cantate, Ariette e Duetti, Op. 2 No. 17: Il Lamento (Sul Rodano severo)
Francesco Cavalli (1602-1676)
08. Statira, principessa di Persia: Sinfonia
09. Statira, principessa di Persia, Act 1: "Alba, ch'imperli i fiori … Amor, che mascherasti" (Ermosilla)
10. Musiche Sacre: No. 23, Canzon a 3
11. Statira, principessa di Persia, Act 2: "Cresce il foco, avvampa il core" (Floralba)
12. Statira, principessa di Persia, Act 2: "Vanne intrepido" (Statira)
Barbara Strozzi
13. Ariette a voce sola, Op. 6: XVI. Amante loquace (Chi brama in amore)
Biagio Marini
14. Sonata sopra "Fuggi dolente core", Op. 22 No. 21
Barbara Strozzi
15. Arie, Op. 8 No. 4: L'Astratto (Voglio, sì vo' cantar)
16. Arie, Op. 8 No. 4: L'Astratto (Misero, i guai m'han da me stesso astratto)


Exact Audio Copy V1.3 from 2. September 2016

EAC extraction logfile from 21. May 2019, 23:26

Emoke Barath / Voglio cantar

Used drive : ATAPI iHAS124 F Adapter: 1 ID: 0

Read mode : Secure
Utilize accurate stream : Yes
Defeat audio cache : Yes
Make use of C2 pointers : No

Read offset correction : 6
Overread into Lead-In and Lead-Out : No
Fill up missing offset samples with silence : Yes
Delete leading and trailing silent blocks : No
Null samples used in CRC calculations : Yes
Used interface : Native Win32 interface for Win NT & 2000

Used output format : User Defined Encoder
Selected bitrate : 1024 kBit/s
Quality : High
Add ID3 tag : No
Command line compressor : C:\Program Files (x86)\Exact Audio Copy\FLAC\FLAC.EXE
Additional command line options : -6 -V -T "ARTIST=%artist%" -T "TITLE=%title%" -T "ALBUM=%albumtitle%" -T "DATE=%year%" -T "TRACKNUMBER=%tracknr%" -T "GENRE=%genre%" -T "COMMENT=%comment%" -T "BAND=%albuminterpret%" -T "ALBUMARTIST=%albuminterpret%" -T "COMPOSER=%composer%" %haslyrics%–tag-from-file=LYRICS="%lyricsfile%"%haslyrics% -T "DISCNUMBER=%cdnumber%" -T "TOTALDISCS=%totalcds%" -T "TOTALTRACKS=%numtracks%" %hascover%–picture="%coverfile%"%hascover% %source% -o %dest%


TOC of the extracted CD

Track | Start | Length | Start sector | End sector
––––––––––––––––––––––––––––-
1 | 0:00.00 | 9:28.22 | 0 | 42621
2 | 9:28.22 | 3:30.34 | 42622 | 58405
3 | 12:58.56 | 8:26.50 | 58406 | 96405
4 | 21:25.31 | 3:25.24 | 96406 | 111804
5 | 24:50.55 | 7:01.29 | 111805 | 143408
6 | 31:52.09 | 2:10.29 | 143409 | 153187
7 | 34:02.38 | 12:48.07 | 153188 | 210794
8 | 46:50.45 | 1:17.56 | 210795 | 216625
9 | 48:08.26 | 4:05.38 | 216626 | 235038
10 | 52:13.64 | 5:25.25 | 235039 | 259438
11 | 57:39.14 | 3:01.24 | 259439 | 273037
12 | 60:40.38 | 3:43.61 | 273038 | 289823
13 | 64:24.24 | 2:38.68 | 289824 | 301741
14 | 67:03.17 | 3:06.64 | 301742 | 315755
15 | 70:10.06 | 5:27.03 | 315756 | 340283
16 | 75:37.09 | 4:22.74 | 340284 | 360007


Range status and errors

Selected range

Filename C:\EACRip\RÓŻNE\Voglio cantar. Barbara Strozzi, Cavalli, Cesti, Marini, Merula (Emoke Barath, Il Pomo d'Oro) (2019)\Barbara Strozzi - Voglio cantar - Emoke Barath, Il Pomo d'oro.wav

Peak level 89.6 %
Extraction speed 9.7 X
Range quality 100.0 %
Test CRC D6DBF9A6
Copy CRC D6DBF9A6
Copy OK

No errors occurred


AccurateRip summary

Track 1 accurately ripped (confidence 2) [A36FF4FE] (AR v2)
Track 2 accurately ripped (confidence 2) [0C25B472] (AR v2)
Track 3 accurately ripped (confidence 2) [29AC208A] (AR v2)
Track 4 accurately ripped (confidence 2) [FE47DA15] (AR v2)
Track 5 accurately ripped (confidence 2) [2264F064] (AR v2)
Track 6 accurately ripped (confidence 2) [87CAA308] (AR v2)
Track 7 accurately ripped (confidence 2) [5357666F] (AR v2)
Track 8 accurately ripped (confidence 2) [39A57CAD] (AR v2)
Track 9 accurately ripped (confidence 2) [06592E20] (AR v2)
Track 10 accurately ripped (confidence 2) [6F99E0A9] (AR v2)
Track 11 accurately ripped (confidence 2) [CF94746F] (AR v2)
Track 12 accurately ripped (confidence 2) [81EB9917] (AR v2)
Track 13 accurately ripped (confidence 2) [724F7508] (AR v2)
Track 14 accurately ripped (confidence 2) [747DE2E0] (AR v2)
Track 15 accurately ripped (confidence 2) [D50428E9] (AR v2)
Track 16 accurately ripped (confidence 2) [9999E5A9] (AR v2)

All tracks accurately ripped

End of status report

–– CUETools DB Plugin V2.1.6

[CTDB TOCID: 1BGvw88ZUd2tSi.cf2zdc2w84MY-] found
Submit result: 1BGvw88ZUd2tSi.cf2zdc2w84MY- has been confirmed
Track | CTDB Status
1 | (6/6) Accurately ripped
2 | (6/6) Accurately ripped
3 | (6/6) Accurately ripped
4 | (6/6) Accurately ripped
5 | (6/6) Accurately ripped
6 | (6/6) Accurately ripped
7 | (6/6) Accurately ripped
8 | (6/6) Accurately ripped
9 | (6/6) Accurately ripped
10 | (6/6) Accurately ripped
11 | (6/6) Accurately ripped
12 | (6/6) Accurately ripped
13 | (6/6) Accurately ripped
14 | (6/6) Accurately ripped
15 | (6/6) Accurately ripped
16 | (6/6) Accurately ripped


==== Log checksum 22C2BAC03C59E19AFBB54143D2D52FBB102214B67E9E2E4F17A265F9304403EC ====

Emőke Baráth, Francesco Corti, Il Pomo d'Oro - Voglio cantar: Strozzi, Cavalli, Cesti, Marini, Merula (2019)

Thanks to the original releaser