Subcategories
Tags
Language
Tags

Eric Clapton - One More Car, One More Rider (2002)

Posted By: v3122
Eric Clapton - One More Car, One More Rider (2002)

Eric Clapton - One More Car, One More Rider (2002)
EAC | Flac(Image) + Cue + Log & MP3 CBR 320Kbps
2CD | Reprise, 9362-48382-2 | ~ 882 or 274 Mb | Artwork -> 73 Mb
DVD-9: NTSC 16:9 (720x480) VBR, Auto Letterboxed
Dolby AC3, 2 ch / Dolby AC3, 6 ch / DTS, 5 ch
Blues Rock / Classic Rock

The cover of Eric Clapton's 2002 live album One More Car, One More Rider – no less than the sixth live album in his solo career – suggests the problems in the record. It's designed to look a classic blues album sleeve or poster, but it's self-conscious and affected, the work of somebody that knows the form but not the substance of the blues. Certainly that accusation can't be reasonably leveled at Clapton who, after all, has proved throughout his career that he knows the substance of the blues, but ever since his canonization to the MOR mainstream with 1992's Unplugged, there's a sinking feeling that EC dabbles in the blues instead of lives there. Sure, he had a fierce testimonial to his favorite music with From the Cradle, but One More Car, One More Rider arrives nearly a decade later, and the difference is stunning. Though he goes through the motions of playing the blues – a cutting version of the perennial "Key to the Highway," "Hoochie Coochie Man," "Goin' Down Slow," among others here – the heart of this album is closer to the NPR instrumental jam of "Reptile" than blues. This is mannered, "classy" playing which sounds perfectly fine but is never interesting, particularly since the song selection favors either warhorses or recent hits. In short, it's a record for those that like the idea of Clapton more than his music.

by Stephen Thomas Erlewine, allmusic
Eric Clapton - One More Car, One More Rider (2002):

Eric Clapton - One More Car, One More Rider (2002)

Tracklist CD1:

01. Key To The Highway [0:03:41.06]
02. Reptile [0:05:59.60]
03. Got You On My Mind [0:03:51.29]
04. Tears In Heaven [0:04:34.70]
05. Bell Bottom Blues [0:05:02.80]
06. Change The World [0:06:16.53]
07. My Father's Eyes [0:08:34.53]
08. River Of Tears [0:08:59.29]
09. Goin' Down Slow [0:05:34.70]
10. She's Gone [0:06:58.06]
11. DATA: RiverofTears.mpg Video

Exact Audio Copy V1.0 beta 3 from 29. August 2011

Отчёт EAC об извлечении, выполненном 27. сентября 2012, 21:47

Eric Clapton / One More Car, One More Rider - CD 1

Дисковод: SONY CD-RW CRX230ED Adapter: 0 ID: 1

Режим чтения : Достоверность
Использование точного потока : Да
Отключение кэша аудио : Да
Использование указателей C2 : Нет

Коррекция смещения при чтении : 6
Способность читать области Lead-in и Lead-out : Нет
Заполнение пропущенных сэмплов тишиной : Да
Удаление блоков с тишиной в начале и конце : Нет
При вычислениях CRC использовались нулевые сэмплы : Да
Интерфейс : Встроенный Win32-интерфейс для Win NT/2000

Выходной формат : Внутренние WAV-операции
Формат сэмплов : 44.100 Гц; 16 бит; стерео


TOC извлечённого CD

Трек | Старт | Длительность | Начальный сектор | Конечный сектор
––––––––––––––––––––––––––––––––––-
1 | 0:00.00 | 3:41.05 | 0 | 16579
2 | 3:41.05 | 5:59.45 | 16580 | 43549
3 | 9:40.50 | 3:51.22 | 43550 | 60896
4 | 13:31.72 | 4:34.53 | 60897 | 81499
5 | 18:06.50 | 5:02.60 | 81500 | 104209
6 | 23:09.35 | 6:16.40 | 104210 | 132449
7 | 29:26.00 | 8:34.40 | 132450 | 171039
8 | 38:00.40 | 8:59.22 | 171040 | 211486
9 | 46:59.62 | 5:34.53 | 211487 | 236589
10 | 52:34.40 | 6:58.05 | 236590 | 267944
11 | 62:04.45 | 16:54.17 | 279345 | 355411


Характеристики диапазона извлечения и сообщения об ошибках

Выбранный диапазон

Имя файла E:\MusicCD\Torrent\Eric Clapton\Eric Clapton - One More Car, One More Rider\Eric Clapton - One More Car, One More Rider - CD 1.wav

Пиковый уровень 99.8 %
Скорость извлечения 8.6 X
Качество диапазона 100.0 %
CRC теста F25A8B27
CRC копии F25A8B27
Копирование… OK

Ошибок не произошло


AccurateRip: сводка

Трек 1 : извлечено точно (доверие 3) [5466647A] (AR v2)
Трек 2 : извлечено точно (доверие 3) [CB8D1200] (AR v2)
Трек 3 : извлечено точно (доверие 3) [A07D1BDC] (AR v2)
Трек 4 : извлечено точно (доверие 3) [1D97F9D6] (AR v2)
Трек 5 : извлечено точно (доверие 3) [05A4E16B] (AR v2)
Трек 6 : извлечено точно (доверие 3) [F0449460] (AR v2)
Трек 7 : извлечено точно (доверие 3) [89CA49AC] (AR v2)
Трек 8 : извлечено точно (доверие 3) [842D1A04] (AR v2)
Трек 9 : извлечено точно (доверие 3) [3141B348] (AR v2)
Трек 10 : извлечено точно (доверие 3) [4165A967] (AR v2)

Все треки извлечены точно

Конец отчёта

==== Контрольная сумма отчёта CCE80A96C9A04D0C74CD487266264CCEC4DDCE76952A249D611805743496C7A7 ====


[CUETools log; Date: 21.07.2021 11:54:44; Version: 2.1.4]
CD-Extra data track length 16:54:17.
[AccurateRip ID: 00159254-00b5cccc-9512820b] found.
Track [ CRC | V2 ] Status
01 [5d0a7869|5466647a] (026+045/631) Accurately ripped
02 [0f2a2f84|cb8d1200] (026+044/629) Accurately ripped
03 [38ae370e|a07d1bdc] (026+045/629) Accurately ripped
04 [604ae467|1d97f9d6] (026+045/631) Accurately ripped
05 [5b57aa16|05a4e16b] (025+045/627) Accurately ripped
06 [239e0545|f0449460] (025+044/624) Accurately ripped
07 [f49bea1c|89ca49ac] (026+045/623) Accurately ripped
08 [00b6ab6a|842d1a04] (025+044/619) Accurately ripped
09 [a324944d|3141b348] (026+045/626) Accurately ripped
10 [92be869a|4165a967] (025+045/622) Accurately ripped
Offsetted by 5:
01 [27790256] (134/631) Accurately ripped
02 [b9fb77ed] (135/629) Accurately ripped
03 [1260e6b2] (135/629) Accurately ripped
04 [8568cde0] (132/631) Accurately ripped
05 [12cbda01] (131/627) Accurately ripped
06 [0319eec5] (131/624) Accurately ripped
07 [fd641cfa] (127/623) Accurately ripped
08 [07d1b4d7] (127/619) Accurately ripped
09 [c2ec9dfd] (130/626) Accurately ripped
10 [d9c6bf57] (130/622) Accurately ripped
Offsetted by 635:
01 [b413b21a] (003/631) Accurately ripped
02 [f4855615] (003/629) Accurately ripped
03 [8564e165] (003/629) Accurately ripped
04 [6a53267d] (003/631) Accurately ripped
05 [c1c18cc1] (003/627) Accurately ripped
06 [66e475c2] (003/624) Accurately ripped
07 [e1e66bd2] (003/623) Accurately ripped
08 [fdeb3af1] (003/619) Accurately ripped
09 [6501493c] (003/626) Accurately ripped
10 [a36a0b29] (003/622) Accurately ripped
Offsetted by 651:
01 [d68f3618] (007/631) Accurately ripped
02 [b6172808] (007/629) Accurately ripped
03 [9b9d36f6] (007/629) Accurately ripped
04 [83d2711e] (007/631) Accurately ripped
05 [9a105ee3] (007/627) Accurately ripped
06 [c063157f] (007/624) Accurately ripped
07 [6d6c8f63] (007/623) Accurately ripped
08 [36bcb666] (007/619) Accurately ripped
09 [948324d3] (007/626) Accurately ripped
10 [cca500aa] (007/622) Accurately ripped
Offsetted by 792:
01 [e3a723f2] (077/631) Accurately ripped
02 [cbb75f99] (076/629) Accurately ripped
03 [7e4823c2] (075/629) Accurately ripped
04 [1181f5d7] (077/631) Accurately ripped
05 [512b6133] (077/627) Accurately ripped
06 [75d8f24f] (076/624) Accurately ripped
07 [eef74bcd] (076/623) Accurately ripped
08 [08636b55] (074/619) Accurately ripped
09 [0b08ffff] (076/626) Accurately ripped
10 [519a6f57] (073/622) Accurately ripped
Offsetted by -1183:
01 [2213d49a] (002/631) Accurately ripped
02 [0393b33e] (002/629) Accurately ripped
03 [278d65ca] (002/629) Accurately ripped
04 [f3614114] (002/631) Accurately ripped
05 [6c3d0f98] (002/627) Accurately ripped
06 [0329d24d] (002/624) Accurately ripped
07 [0b4f63e0] (002/623) Accurately ripped
08 [50a315ee] (002/619) Accurately ripped
09 [fd6016bf] (000/626) No match (V2 was not tested)
10 [dd2f2e6e] (002/622) Accurately ripped
Offsetted by -707:
01 [570d4a72] (000/631) No match (V2 was not tested)
02 [1a551394] (000/629) No match (V2 was not tested)
03 [a297b3e7] (000/629) No match (V2 was not tested)
04 [ec679de7] (000/631) No match (V2 was not tested)
05 [4bd4182c] (000/627) No match (V2 was not tested)
06 [6627e11a] (000/624) No match (V2 was not tested)
07 [13909dae] (000/623) No match (V2 was not tested)
08 [ac00dd24] (000/619) No match (V2 was not tested)
09 [b69a8cf5] (000/626) No match (V2 was not tested)
10 [b790f6cb] (000/622) No match (V2 was not tested)
Offsetted by -93:
01 [ac71fc9c] (000/631) No match (V2 was not tested)
02 [967576ab] (000/629) No match (V2 was not tested)
03 [f56f09f8] (000/629) No match (V2 was not tested)
04 [186d28fb] (000/631) No match (V2 was not tested)
05 [702a5326] (000/627) No match (V2 was not tested)
06 [ba66cff9] (000/624) No match (V2 was not tested)
07 [ad660682] (000/623) No match (V2 was not tested)
08 [15a2ceb2] (000/619) No match (V2 was not tested)
09 [953fbb5d] (000/626) No match (V2 was not tested)
10 [ffd32477] (000/622) No match (V2 was not tested)
Offsetted by -61:
01 [94d60d4e] (000/631) No match (V2 was not tested)
02 [80cd5a8e] (000/629) No match (V2 was not tested)
03 [057783b1] (000/629) No match (V2 was not tested)
04 [b3b01b97] (000/631) No match (V2 was not tested)
05 [5bc07e3d] (000/627) No match (V2 was not tested)
06 [3dce03ce] (000/624) No match (V2 was not tested)
07 [0f08120a] (000/623) No match (V2 was not tested)
08 [648968a9] (000/619) No match (V2 was not tested)
09 [8e8d2922] (000/626) No match (V2 was not tested)
10 [1475d4dd] (000/622) No match (V2 was not tested)
Offsetted by -20:
01 [9ac10864] (000/631) No match (V2 was not tested)
02 [33aebb33] (000/629) No match
03 [b05d508d] (000/629) No match
04 [53d1d67c] (000/631) No match
05 [ed76305c] (000/627) No match
06 [8a176cdf] (000/624) No match
07 [7d3735f1] (000/623) No match
08 [d4ac452c] (000/619) No match
09 [b51fd7c4] (000/626) No match
10 [a75119ba] (000/622) No match
Offsetted by -1:
01 [9809b42a] (000/631) No match (V2 was not tested)
02 [9b7fc92b] (000/629) No match (V2 was not tested)
03 [0f0778e0] (000/629) No match (V2 was not tested)
04 [4e998de6] (000/631) No match (V2 was not tested)
05 [8ba9e449] (000/627) No match (V2 was not tested)
06 [ee280ab6] (000/624) No match (V2 was not tested)
07 [cf291ee5] (000/623) No match (V2 was not tested)
08 [9867fff0] (000/619) No match (V2 was not tested)
09 [1cf2b8f3] (000/626) No match (V2 was not tested)
10 [e709ccea] (000/622) No match (V2 was not tested)
Offsetted by 6:
01 [48008729] (000/631) No match (V2 was not tested)
02 [19336512] (000/629) No match (V2 was not tested)
03 [793f4a0e] (000/629) No match (V2 was not tested)
04 [766429fd] (000/631) No match (V2 was not tested)
05 [09bf6ff8] (000/627) No match (V2 was not tested)
06 [dfbda2ce] (000/624) No match (V2 was not tested)
07 [65211aab] (000/623) No match (V2 was not tested)
08 [4e4fcecf] (000/619) No match (V2 was not tested)
09 [4d80d947] (000/626) No match (V2 was not tested)
10 [750931f5] (000/622) No match (V2 was not tested)
Offsetted by 483:
01 [e66ff362] (000/631) No match (V2 was not tested)
02 [ff9e806e] (000/629) No match (V2 was not tested)
03 [ff896ea9] (000/629) No match (V2 was not tested)
04 [e571b195] (000/631) No match (V2 was not tested)
05 [ee900b3b] (000/627) No match (V2 was not tested)
06 [f9a1e9fc] (000/624) No match (V2 was not tested)
07 [e0582d02] (000/623) No match (V2 was not tested)
08 [672a7cb3] (000/619) No match (V2 was not tested)
09 [919807ad] (000/626) No match (V2 was not tested)
10 [bbb6b351] (000/622) No match (V2 was not tested)
Offsetted by 598:
01 [a802bdaa] (000/631) No match (V2 was not tested)
02 [4a8ded22] (000/629) No match (V2 was not tested)
03 [20ed171c] (000/629) No match (V2 was not tested)
04 [cb94ea8c] (000/631) No match (V2 was not tested)
05 [4cee1526] (000/627) No match (V2 was not tested)
06 [29e10999] (000/624) No match (V2 was not tested)
07 [e53adb8a] (000/623) No match (V2 was not tested)
08 [52a13215] (000/619) No match (V2 was not tested)
09 [789e4733] (000/626) No match (V2 was not tested)
10 [22102ced] (000/622) No match (V2 was not tested)

Track Peak [ CRC32 ] [W/O NULL] [ LOG ]
– 99,8 [F25A8B27] [035C69EB] CRC32
01 99,8 [4CD6120C] [0A1C949C]
02 98,3 [83274A05] [B1C81D09]
03 99,8 [0021398E] [E7CBF6AF]
04 97,3 [603D81AA] [DF71F495]
05 99,8 [1AB54AE3] [AFA11C61]
06 99,8 [18D7E644] [6E77C49E]
07 99,8 [E45622F2] [E39A320E]
08 99,8 [1A22D5E5] [0DFD1325]
09 99,8 [DD9F569E] [06E5A304]
10 99,8 [F6010369] [769B58E3]


Eric Clapton - One More Car, One More Rider (2002)

Tracklist CD2:

01. I Want A Little Girl [0:04:38.06]
02. Badge [0:06:02.06]
03. Hoochie Coochie Man [0:04:30.49]
04. Have You Ever Loved A Woman? [0:07:53.46]
05. Cocaine [0:04:20.17]
06. Wonderful Tonight [0:06:42.33]
07. Layla [0:09:16.33]
08. Sunshine Of Your Love [0:07:11.26]
09. Over The Rainbow [0:05:39.86]
10. DATA: Badge.mpg Video

Exact Audio Copy V1.0 beta 3 from 29. August 2011

Отчёт EAC об извлечении, выполненном 27. сентября 2012, 22:26

Eric Clapton / One More Car, One More Rider - CD 2

Дисковод: SONY CD-RW CRX230ED Adapter: 0 ID: 1

Режим чтения : Достоверность
Использование точного потока : Да
Отключение кэша аудио : Да
Использование указателей C2 : Нет

Коррекция смещения при чтении : 6
Способность читать области Lead-in и Lead-out : Нет
Заполнение пропущенных сэмплов тишиной : Да
Удаление блоков с тишиной в начале и конце : Нет
При вычислениях CRC использовались нулевые сэмплы : Да
Интерфейс : Встроенный Win32-интерфейс для Win NT/2000

Выходной формат : Внутренние WAV-операции
Формат сэмплов : 44.100 Гц; 16 бит; стерео


TOC извлечённого CD

Трек | Старт | Длительность | Начальный сектор | Конечный сектор
––––––––––––––––––––––––––––––––––-
1 | 0:00.00 | 4:38.05 | 0 | 20854
2 | 4:38.05 | 6:02.05 | 20855 | 48009
3 | 10:40.10 | 4:30.37 | 48010 | 68296
4 | 15:10.47 | 7:53.35 | 68297 | 103806
5 | 23:04.07 | 4:20.13 | 103807 | 123319
6 | 27:24.20 | 6:42.25 | 123320 | 153494
7 | 34:06.45 | 9:16.25 | 153495 | 195219
8 | 43:22.70 | 7:11.20 | 195220 | 227564
9 | 50:34.15 | 5:39.65 | 227565 | 253054
10 | 58:46.05 | 13:15.69 | 264455 | 324148


Характеристики диапазона извлечения и сообщения об ошибках

Выбранный диапазон

Имя файла E:\MusicCD\Torrent\Eric Clapton\Eric Clapton - One More Car, One More Rider\Eric Clapton - One More Car, One More Rider - CD 2.wav

Пиковый уровень 100.0 %
Скорость извлечения 8.4 X
Качество диапазона 100.0 %
CRC теста B30C0AE1
CRC копии B30C0AE1
Копирование… OK

Ошибок не произошло


AccurateRip: сводка

Трек 1 : извлечено точно (доверие 2) [9D1B288E] (AR v2)
Трек 2 : извлечено точно (доверие 2) [3795CB86] (AR v2)
Трек 3 : извлечено точно (доверие 2) [EE7B8F87] (AR v2)
Трек 4 : извлечено точно (доверие 2) [A9A2C039] (AR v2)
Трек 5 : извлечено точно (доверие 2) [8AC293E7] (AR v2)
Трек 6 : извлечено точно (доверие 2) [74233C71] (AR v2)
Трек 7 : извлечено точно (доверие 2) [8E1299AE] (AR v2)
Трек 8 : извлечено точно (доверие 2) [ED2B71CE] (AR v2)
Трек 9 : извлечено точно (доверие 2) [7B08B307] (AR v2)

Все треки извлечены точно

Конец отчёта

==== Контрольная сумма отчёта 6D990D52439F2F89655F276558F85B6087B3539905F7B72330037CA65A26BE7D ====


[CUETools log; Date: 21.07.2021 11:59:16; Version: 2.1.4]
CD-Extra data track length 13:15:69.
[AccurateRip ID: 00134c4e-009326a4-7f10e10a] found.
Track [ CRC | V2 ] Status
01 [8080f807|9d1b288e] (023+043/610) Accurately ripped
02 [f7a6c43e|3795cb86] (024+043/612) Accurately ripped
03 [2cac27c8|ee7b8f87] (023+043/612) Accurately ripped
04 [526be1cf|a9a2c039] (024+043/612) Accurately ripped
05 [4036f621|8ac293e7] (024+043/612) Accurately ripped
06 [7f15dedb|74233c71] (024+043/611) Accurately ripped
07 [f54b29de|8e1299ae] (024+043/611) Accurately ripped
08 [6af68ad7|ed2b71ce] (024+043/609) Accurately ripped
09 [5aef2251|7b08b307] (023+043/603) Accurately ripped
Offsetted by 5:
01 [051e678d] (134/610) Accurately ripped
02 [dd9669db] (135/612) Accurately ripped
03 [cef6deb1] (135/612) Accurately ripped
04 [0cda65f2] (134/612) Accurately ripped
05 [86b044d6] (134/612) Accurately ripped
06 [7e86de98] (134/611) Accurately ripped
07 [c23e5172] (134/611) Accurately ripped
08 [76d30aa4] (132/609) Accurately ripped
09 [70fb924f] (133/603) Accurately ripped
Offsetted by 640:
01 [2aff524f] (004/610) Accurately ripped
02 [af522c44] (004/612) Accurately ripped
03 [873213e1] (004/612) Accurately ripped
04 [08fa7ce0] (004/612) Accurately ripped
05 [fa416a94] (004/612) Accurately ripped
06 [93513bfd] (004/611) Accurately ripped
07 [141bdda0] (004/611) Accurately ripped
08 [90f38623] (004/609) Accurately ripped
09 [0e6afa36] (004/603) Accurately ripped
Offsetted by 651:
01 [9d297d4e] (007/610) Accurately ripped
02 [7218045f] (007/612) Accurately ripped
03 [1f9e9f3d] (007/612) Accurately ripped
04 [8784483b] (007/612) Accurately ripped
05 [ed25dce4] (007/612) Accurately ripped
06 [cdccca13] (007/611) Accurately ripped
07 [e6c12cf7] (007/611) Accurately ripped
08 [2233f7d0] (007/609) Accurately ripped
09 [8ac6deb3] (007/603) Accurately ripped
Offsetted by 792:
01 [e2f0b533] (075/610) Accurately ripped
02 [ed38aaf5] (075/612) Accurately ripped
03 [388a314e] (075/612) Accurately ripped
04 [cba14cf2] (075/612) Accurately ripped
05 [10581c3d] (075/612) Accurately ripped
06 [4c6929cf] (074/611) Accurately ripped
07 [7952e70b] (074/611) Accurately ripped
08 [300d3ab9] (075/609) Accurately ripped
09 [6a009832] (071/603) Accurately ripped
Offsetted by -1183:
01 [0aaabd66] (002/610) Accurately ripped
02 [f0c7e4c2] (002/612) Accurately ripped
03 [93030c81] (002/612) Accurately ripped
04 [df591a00] (002/612) Accurately ripped
05 [8f523a7a] (002/612) Accurately ripped
06 [69792e5d] (002/611) Accurately ripped
07 [7ae5ca17] (000/611) No match (V2 was not tested)
08 [3ca4ff4f] (002/609) Accurately ripped
09 [b56f9e9c] (002/603) Accurately ripped
Offsetted by -659:
01 [6cc04a0b] (000/610) No match (V2 was not tested)
02 [caa8610f] (000/612) No match (V2 was not tested)
03 [49126082] (000/612) No match (V2 was not tested)
04 [8f7371ef] (000/612) No match (V2 was not tested)
05 [15520337] (000/612) No match (V2 was not tested)
06 [6433da5c] (000/611) No match (V2 was not tested)
07 [5b60584f] (000/611) No match (V2 was not tested)
08 [9f7c22db] (000/609) No match (V2 was not tested)
09 [c2e78dae] (000/603) No match (V2 was not tested)
Offsetted by -93:
01 [53f09410] (000/610) No match (V2 was not tested)
02 [c528addc] (000/612) No match (V2 was not tested)
03 [e2e896b7] (000/612) No match (V2 was not tested)
04 [92359d6b] (000/612) No match (V2 was not tested)
05 [08265bc7] (000/612) No match (V2 was not tested)
06 [20055ce8] (000/611) No match (V2 was not tested)
07 [12656f17] (000/611) No match (V2 was not tested)
08 [6eb406fe] (000/609) No match (V2 was not tested)
09 [6fd7dc94] (000/603) No match (V2 was not tested)
Offsetted by -36:
01 [eb54dfab] (000/610) No match (V2 was not tested)
02 [a224826f] (000/612) No match (V2 was not tested)
03 [d3f30400] (000/612) No match (V2 was not tested)
04 [1ea60926] (000/612) No match (V2 was not tested)
05 [800c0464] (000/612) No match (V2 was not tested)
06 [465ffe77] (000/611) No match (V2 was not tested)
07 [020ac8f4] (000/611) No match (V2 was not tested)
08 [69e6f4f6] (000/609) No match (V2 was not tested)
09 [1be8a351] (000/603) No match (V2 was not tested)
Offsetted by -30:
01 [c79e476f] (000/610) No match (V2 was not tested)
02 [46764e7c] (000/612) No match (V2 was not tested)
03 [da5c6ec5] (000/612) No match (V2 was not tested)
04 [cef57006] (000/612) No match (V2 was not tested)
05 [9c67fbbe] (000/612) No match (V2 was not tested)
06 [7354d4a4] (000/611) No match (V2 was not tested)
07 [b1d30830] (000/611) No match (V2 was not tested)
08 [87ba9b13] (000/609) No match (V2 was not tested)
09 [5a5f13bf] (000/603) No match (V2 was not tested)
Offsetted by -20:
01 [5a436026] (000/610) No match (V2 was not tested)
02 [2ad0133a] (000/612) No match
03 [1cb93db3] (000/612) No match
04 [db4300cd] (000/612) No match
05 [9b9050da] (000/612) No match
06 [2361e32b] (000/611) No match
07 [c1a79902] (000/611) No match
08 [e75207e3] (000/609) No match
09 [fae58c0c] (000/603) No match
Offsetted by -1:
01 [9b26a5f7] (000/610) No match (V2 was not tested)
02 [08398052] (000/612) No match (V2 was not tested)
03 [35c5c665] (000/612) No match (V2 was not tested)
04 [b0c11788] (000/612) No match (V2 was not tested)
05 [1baaa702] (000/612) No match (V2 was not tested)
06 [269d2ef6] (000/611) No match (V2 was not tested)
07 [070371d7] (000/611) No match (V2 was not tested)
08 [fe300c7c] (000/609) No match (V2 was not tested)
09 [a456455d] (000/603) No match (V2 was not tested)
Offsetted by 483:
01 [3e15af19] (000/610) No match (V2 was not tested)
02 [7a4e9b9a] (000/612) No match (V2 was not tested)
03 [8007f47e] (000/612) No match (V2 was not tested)
04 [b8d731d9] (000/612) No match (V2 was not tested)
05 [d77207d1] (000/612) No match (V2 was not tested)
06 [434f1719] (000/611) No match (V2 was not tested)
07 [be975ece] (000/611) No match (V2 was not tested)
08 [14ee1674] (000/609) No match (V2 was not tested)
09 [acb36358] (000/603) No match (V2 was not tested)
Offsetted by 598:
01 [33410f65] (000/610) No match (V2 was not tested)
02 [6ff05041] (000/612) No match (V2 was not tested)
03 [cf24903a] (000/612) No match (V2 was not tested)
04 [6fd881b5] (000/612) No match (V2 was not tested)
05 [16d6c2ec] (000/612) No match (V2 was not tested)
06 [b397e70d] (000/611) No match (V2 was not tested)
07 [ee73dad6] (000/611) No match (V2 was not tested)
08 [d9673ebc] (000/609) No match (V2 was not tested)
09 [50ead54e] (000/603) No match (V2 was not tested)
Offsetted by 786:
01 [7bfedd6a] (000/610) No match (V2 was not tested)
02 [f91315ad] (000/612) No match (V2 was not tested)
03 [48b2d5d2] (000/612) No match (V2 was not tested)
04 [9fa7fde8] (000/612) No match (V2 was not tested)
05 [bbc38b9f] (000/612) No match (V2 was not tested)
06 [2ba6fe33] (000/611) No match (V2 was not tested)
07 [153064e8] (000/611) No match (V2 was not tested)
08 [b1c66b2b] (000/609) No match (V2 was not tested)
09 [7db2e5b4] (000/603) No match (V2 was not tested)

Track Peak [ CRC32 ] [W/O NULL] [ LOG ]
– 100,0 [B30C0AE1] [72A7D234] CRC32
01 99,8 [D441F445] [14CC9080]
02 99,8 [6B5879AA] [1C3AE26D]
03 99,8 [737836AC] [50B28658]
04 99,8 [22EF414F] [51E6D358]
05 99,8 [BEC96054] [DA60A870]
06 99,8 [B758D603] [D4D93B37]
07 100,0 [05AD4F07] [26E0CFB8]
08 99,8 [F6949239] [F56BA114]
09 99,8 [A8E1CAE0] [005109E4]


Eric Clapton - One More Car, One More Rider (2002)

Eric Clapton - One More Car, One More Rider (2002)

Eric Clapton - One More Car, One More Rider (2002)

* * * * *

Eric Clapton - One More Car, One More Rider (2002)

Tracklist DVD:

1.Key to the Highway
2.Reptile
3.Got You on My Mind
4.Tears In Heaven
5.Bell Bottom Blues
6.Change the World
7.Father's Eyes
8.River of Tears
9.Going Down Slow
10.She's Gone
11.I Want a Little Girl
12.Badge
13.Hootchie Kootchie Man
14.Have You Ever Loved a Woman?
15.Cocaine
16.Wonderful Tonight
17.Layla
18. Will It Go Round In Circles
19. Sunshine of Your Love
20. Over the Rainbow

The Staples Center, Los Angeles, California, August 18, 2001.

Title: video_ts
Size: 6.68 Gb ( 7 000 290,00 KBytes ) - DVD-9
Enabled regions: 1, 2, 3, 4, 5, 6, 7, 8

VTS_01 :
Play Length: 00:00:04
Video: NTSC 4:3 (720x480) VBR
Audio:
English (Dolby AC3, 2 ch)

VTS_02 :
Play Length: 00:00:16+{00:00:16}
Video: NTSC 4:3 (720x480) VBR
Audio:
English (Dolby AC3, 2 ch)

VTS_03 :
Play Length: 02:04:42
Video: NTSC 16:9 (720x480) VBR, Auto Letterboxed
Audio:
English (Dolby AC3, 2 ch)
English (Dolby AC3, 6 ch)
English (DTS, 5 ch)
Subtitles:
English
English

VTS_04 :
Play Length: 00:00:30+{00:00:30}+{00:00:30}
Video: NTSC 4:3 (720x480) VBR
Audio:
English (Dolby AC3, 2 ch)

VTS_05 :
Play Length: 00:00:53+{00:00:53}+{00:00:53}
Video: NTSC 16:9 (720x480) VBR, Auto Letterboxed
Audio:
English (Dolby AC3, 2 ch)

VTS_06 :
Play Length: 00:00:02
Video: NTSC 16:9 (720x480) VBR, Auto Letterboxed

VTS_07 :
Play Length: 00:00:03
Video: NTSC 4:3 (720x480) VBR
Audio:
English (Dolby AC3, 2 ch)


Eric Clapton - One More Car, One More Rider (2002)

Eric Clapton - One More Car, One More Rider (2002)

Eric Clapton - One More Car, One More Rider (2002)

Eric Clapton - One More Car, One More Rider (2002)

* * * * *

Eric Clapton - One More Car, One More Rider (2002)

All thanks go to the original releaser

Eric Clapton in my Blog

Download Eric Clapton - One More Car, One More Rider (2002):