Subcategories

Eric Clapton - Live in San Diego (with Special Guest JJ Cale) (2017) [BDRip, 720p]

Posted By: v3122
Eric Clapton - Live in San Diego (with Special Guest JJ Cale) (2017) [BDRip, 720p]

Eric Clapton - Live in San Diego (with Special Guest JJ Cale) (2017)
MKV: MPEG4 Video 1280x720, 23.976fps, 5 906 kb/s | DTS 6ch, 1536kbps
Blues Rock | 01:45:30 | ~ 5.77 Gb

On March 15, 2007, Eric Clapton's world tour stopped at San Diego's iPayOne Center (originally the San Diego Sports Arena and now the Valley View Casino Center). The band lineup for the tour continues to be a firm fan-favorite, with Derek Trucks and Doyle Bramhall II on guitars, Chris Stainton and Tim Carmon on keyboards, Willie Weeks on bass, Steve Jordan on drums and backing vocalists Michelle John and Sharon White During the set, EC's long-time musical inspiration, JJ Cale, sat in for five songs, including three from their Grammy-Award winning album, The Road To Escondido, released in 2006.
Eric Clapton - Live in San Diego (with Special Guest JJ Cale) (2017) [BDRip, 720p]


Eric Clapton - Live in San Diego (with Special Guest JJ Cale) (2017):


Tracklist:

1. Tell The Truth
2. Key to the Highway
3. Got to Get Better in a Little While
4. Anyday
5. Anyway the Wind Blows
6. After Midnight
7. Who Am I Telling You?
8. Don’t Cry Sister
9. Cocaine
10. Motherless Children
11. Little Queen of Spades
12. Further On Up the Road
13. Wonderful Tonight
14. Layla
15. Crossroads

General
Unique ID : 239044549291544068467420042064763421616 (0xB3D64E38AD29D71B9F605786E2DE03B0)
Complete name : G:\UP\Mix\Eric Clapton 2017 - Live in San Diego\Eric Clapton - Live in San Diego (with Special Guest JJ Cale) 2007.mkv
Format : Matroska
Format version : Version 2
File size : 5.47 GiB
Duration : 1h 45mn
Overall bit rate : 7 418 Kbps
Encoded date : UTC 2017-04-01 10:51:28
Writing application : mkvmerge v10.0.0 ('To Drown In You') 64bit
Writing library : libebml v1.3.4 + libmatroska v1.4.5
DURATION : 01:45:30.059000000
NUMBER_OF_FRAMES : 593443
NUMBER_OF_BYTES : 1194007316
_STATISTICS_WRITING_APP : mkvmerge v10.0.0 ('To Drown In You') 64bit
_STATISTICS_WRITING_DATE_UTC : 2017-04-01 10:51:28
_STATISTICS_TAGS : BPS DURATION NUMBER_OF_FRAMES NUMBER_OF_BYTES

Video
ID : 1
Format : AVC
Format/Info : Advanced Video Codec
Format profile : High@L4.1
Format settings, CABAC : Yes
Format settings, ReFrames : 5 frames
Codec ID : V_MPEG4/ISO/AVC
Duration : 1h 45mn
Bit rate : 5 906 Kbps
Width : 1 280 pixels
Height : 720 pixels
Display aspect ratio : 16:9
Frame rate mode : Constant
Frame rate : 23.976 fps
Color space : YUV
Chroma subsampling : 4:2:0
Bit depth : 8 bits
Scan type : Progressive
Bits/(Pixel*Frame) : 0.267
Stream size : 4.25 GiB (78%)
Writing library : x264 core 148 r2744 b97ae06
Encoding settings : cabac=1 / ref=5 / deblock=1:0:0 / analyse=0x3:0x133 / me=umh / subme=9 / psy=1 / psy_rd=1.00:0.00 / mixed_ref=1 / me_range=16 / chroma_me=1 / trellis=2 / 8x8dct=1 / cqm=0 / deadzone=21,11 / fast_pskip=0 / chroma_qp_offset=-2 / threads=12 / lookahead_threads=1 / sliced_threads=0 / nr=0 / decimate=1 / interlaced=0 / bluray_compat=0 / constrained_intra=0 / bframes=3 / b_pyramid=2 / b_adapt=1 / b_bias=0 / direct=3 / weightb=1 / open_gop=0 / weightp=2 / keyint=250 / keyint_min=23 / scenecut=40 / intra_refresh=0 / rc_lookahead=50 / rc=2pass / mbtree=1 / bitrate=5906 / ratetol=1.0 / qcomp=0.60 / qpmin=0 / qpmax=69 / qpstep=4 / cplxblur=20.0 / qblur=0.5 / ip_ratio=1.40 / aq=1:1.00
Language : English
Default : Yes
Forced : No
DURATION : 01:45:30.032000000
NUMBER_OF_FRAMES : 151769
NUMBER_OF_BYTES : 4673619437
_STATISTICS_WRITING_APP : mkvmerge v10.0.0 ('To Drown In You') 64bit
_STATISTICS_WRITING_DATE_UTC : 2017-04-01 10:51:28
_STATISTICS_TAGS : BPS DURATION NUMBER_OF_FRAMES NUMBER_OF_BYTES

Audio
ID : 2
Format : DTS
Format/Info : Digital Theater Systems
Mode : 16
Format settings, Endianness : Big
Codec ID : A_DTS
Duration : 1h 45mn
Bit rate mode : Constant
Bit rate : 1 509 Kbps
Channel(s) : 6 channels
Channel positions : Front: L C R, Side: L R, LFE
Sampling rate : 48.0 KHz
Bit depth : 24 bits
Compression mode : Lossy
Stream size : 1.11 GiB (20%)
Language : English
Default : Yes
Forced : No

Menu
00:00:00.000 : en:00:00:00.000
00:06:45.030 : en:00:06:45.030
00:10:57.073 : en:00:10:57.073
00:20:48.539 : en:00:20:48.539
00:27:27.563 : en:00:27:27.563
00:32:58.643 : en:00:32:58.643
00:38:46.199 : en:00:38:46.199
00:43:48.167 : en:00:43:48.167
00:47:32.391 : en:00:47:32.391
00:53:01.095 : en:00:53:01.095
00:58:24.418 : en:00:58:24.418
01:15:42.955 : en:01:15:42.955
01:22:33.073 : en:01:22:33.073
01:27:05.137 : en:01:27:05.137
01:36:12.976 : en:01:36:12.976
01:43:32.373 : en:01:43:32.373



Eric Clapton - Live in San Diego (with Special Guest JJ Cale) (2017) [BDRip, 720p]

Eric Clapton - Live in San Diego (with Special Guest JJ Cale) (2017) [BDRip, 720p]

Eric Clapton - Live in San Diego (with Special Guest JJ Cale) (2017) [BDRip, 720p]

Eric Clapton - Live in San Diego (with Special Guest JJ Cale) (2017) [BDRip, 720p]

Eric Clapton - Live in San Diego (with Special Guest JJ Cale) (2017) [BDRip, 720p]


All thanks go to meloman67

Eric Clapton in my Blog

Download Eric Clapton - Live in San Diego (with Special Guest JJ Cale) (2017):