Tags
Language
Tags

J.J. Cale & Eric Clapton - The Road To Escondido (2006)

Posted By: v3122
J.J. Cale & Eric Clapton - The Road To Escondido (2006)

J.J. Cale & Eric Clapton - The Road To Escondido (2006)
EAC | Flac(Image) + Cue + Log & MP3 CBR 320Kbps
Reprise, 44418-2 | ~ 435 or 135 Mb | Artwork(jpg) -> 105 Mb
Blues Rock, Classic Rock

Two artists had an enormous impact on Eric Clapton's music in the '70s: Delaney & Bonnie and J.J. Cale. Clapton joined Delaney & Bonnie's backing band after Cream dissolved, an experience that helped him ease away from the bombast of the power trio and into the blend of soul, blues, pop, and rock that defined his solo sound. Delaney Bramlett helped steer Clapton's eponymous 1970 solo debut, which not only came very close to replicating the sound of Delaney & Bonnie's records from that time, but also had a rollicking version of J.J. Cale's "After Midnight" that was Clapton's first solo hit. Cale's influence surfaced again a few years later on Clapton's 1978 album Slowhand, which not only had J.J.'s sardonic "Cocaine" as its centerpiece but also drew heavily from Cale's laconic groove. Although Clapton progressively polished his sound over the course of the '80s, dabbling in pop along the way, he never quite strayed from the blueprint that he wrote based on his love of Cale's music, so his decision to team up with Cale for a full-fledged duet album called The Road to Escondido in 2006 felt natural, perhaps even overdue. After all, Clapton's work has borne the imprint of Cale's sound for over three decades now, so a duet record 36 years after Eric had a hit with "After Midnight" feels right. Initially, Clapton planned to cut a record with Cale functioning as a producer, but the project morphed into a duet album where Cale has a stronger presence than Clapton: the superstar might have brought in his longtime producer/collaborator Simon Climie, who has helmed every one of his records since 1998's Pilgrim, but Cale brought in members of his backing band and wound up writing 11 of the album's 14 tracks, effectively dominating The Road to Escondido. Even if Cale is the driving force behind the album, it's easy to listen to the album and think otherwise, since Climie gives this a precise, polished production that's entirely too slick for the rootsy music the duo plays, which in turn makes it sonically similar to all Clapton albums of the past ten years. Also, there are a lot of cameos from familiar pros (drummer Steve Jordan; bassist Pino Palladino; guitarists Albert Lee, Derek Trucks, and John Mayer; the late Billy Preston in some of his last sessions), giving this a crisp, professional vibe more in line with Clapton than Cale.

But the real reason that it would be easy to mistake The Road to Escondido as a solo Eric Clapton effort is that it's nearly impossible to distinguish him from J.J. Cale throughout the entire record. Sure, there aren't nearly as many synths as there were on Reptile or the stilted adult pop of Back Home, but the laid-back groove – even when the music starts jumping, it never breaks a sweat – sounds like a Clapton record through and through. More than that, The Road to Escondido reveals exactly how much Clapton learned from Cale's singing; their timbre and phrasing is nearly identical, to the point that it's frequently hard to discern who is singing when. Disconcerting this may be, but it's hardly bad, since it never feels like Clapton is copying Cale; instead, it shows their connection, that they're kindred spirits. And if Clapton popularized Cale's sound, he's paying him back with this record, which will bring him to a wider audience – and Cale, in turn, has given Clapton his best record in a long time by focusing Clapton on this soulful, mellow groove and giving him a solid set of songs. While it is hard not to wish that there was a little less NPR slickness and a little more grit to the record – this is roots music after all, so it should have some dirt to it – this is still a very appealing record, capturing the duo working the same territory that's served them both well over the years but still finding something new there, largely because they're doing it together and clearly enjoying each other's company. It's relaxed and casual in the best possible sense: it doesn't sound lazy, it sounds lived-in, even with Climie's too-clean production, and that vibe – coupled with Cale's sturdy songs – makes this is an understated winner. This CD was nominated for a Grammy award in 2007 for Best Contemporary Blues Album.

by Stephen Thomas Erlewine, allmusic
Anna Domino - Anna Domino (1986):

J.J. Cale & Eric Clapton - The Road To Escondido (2006)

Tracklist:

01. Danger [0:05:34.53]
02. Heads In Georgia [0:04:12.16]
03. Missing Person [0:04:26.69]
04. When This War Is Over [0:03:49.77]
05. Sporting Life Blues [0:03:31.92]
06. Dead End Road [0:03:30.18]
07. It's Easy [0:04:19.12]
08. Hard To Thrill [0:05:11.86]
09. Anyway The Wind Blows [0:03:56.54]
10. Three Little Girls [0:02:44.97]
11. Don't Cry Sister [0:03:10.53]
12. Last Will And Testament [0:03:57.26]
13. Who Am I Telling You? [0:04:08.93]
14. Ride The River [0:04:35.92]

Exact Audio Copy V1.0 beta 3 from 29. August 2011

Отчёт EAC об извлечении, выполненном 28. сентября 2012, 23:47

J.J. Cale & Eric Clapton / The Road To Escondido

Дисковод: SONY CD-RW CRX230ED Adapter: 0 ID: 1

Режим чтения : Достоверность
Использование точного потока : Да
Отключение кэша аудио : Да
Использование указателей C2 : Нет

Коррекция смещения при чтении : 6
Способность читать области Lead-in и Lead-out : Нет
Заполнение пропущенных сэмплов тишиной : Да
Удаление блоков с тишиной в начале и конце : Нет
При вычислениях CRC использовались нулевые сэмплы : Да
Интерфейс : Встроенный Win32-интерфейс для Win NT/2000

Выходной формат : Внутренние WAV-операции
Формат сэмплов : 44.100 Гц; 16 бит; стерео


TOC извлечённого CD

Трек | Старт | Длительность | Начальный сектор | Конечный сектор
––––––––––––––––––––––––––––––––––-
1 | 0:00.00 | 5:34.40 | 0 | 25089
2 | 5:34.40 | 4:12.12 | 25090 | 44001
3 | 9:46.52 | 4:26.52 | 44002 | 64003
4 | 14:13.29 | 3:49.58 | 64004 | 81236
5 | 18:03.12 | 3:31.69 | 81237 | 97130
6 | 21:35.06 | 3:30.14 | 97131 | 112894
7 | 25:05.20 | 4:19.09 | 112895 | 132328
8 | 29:24.29 | 5:11.65 | 132329 | 155718
9 | 34:36.19 | 3:56.41 | 155719 | 173459
10 | 38:32.60 | 2:44.73 | 173460 | 185832
11 | 41:17.58 | 3:10.40 | 185833 | 200122
12 | 44:28.23 | 3:57.20 | 200123 | 217917
13 | 48:25.43 | 4:08.70 | 217918 | 236587
14 | 52:34.38 | 4:35.69 | 236588 | 257281


Характеристики диапазона извлечения и сообщения об ошибках

Выбранный диапазон

Имя файла E:\MusicCD\Torrent\Eric Clapton\J.J. Cale & Eric Clapton - The Road To Escondido\J.J. Cale & Eric Clapton - The Road To Escondido.wav

Пиковый уровень 100.0 %
Скорость извлечения 8.1 X
Качество диапазона 100.0 %
CRC теста 39075D84
CRC копии 39075D84
Копирование… OK

Ошибок не произошло


AccurateRip: сводка

Трек 1 : извлечено точно (доверие 14) [1B7CAFD5] (AR v2)
Трек 2 : извлечено точно (доверие 14) [3D92AEF9] (AR v2)
Трек 3 : извлечено точно (доверие 14) [BBFC70EA] (AR v2)
Трек 4 : извлечено точно (доверие 14) [D37328FF] (AR v2)
Трек 5 : извлечено точно (доверие 14) [3EBA2EB9] (AR v2)
Трек 6 : извлечено точно (доверие 14) [CC3A8AD4] (AR v2)
Трек 7 : извлечено точно (доверие 14) [82E28FBE] (AR v2)
Трек 8 : извлечено точно (доверие 14) [295BEA3C] (AR v2)
Трек 9 : извлечено точно (доверие 14) [1ED8C12E] (AR v2)
Трек 10 : извлечено точно (доверие 14) [FE4BD6BD] (AR v2)
Трек 11 : извлечено точно (доверие 14) [54D793AC] (AR v2)
Трек 12 : извлечено точно (доверие 13) [762DE682] (AR v2)
Трек 13 : извлечено точно (доверие 14) [55756342] (AR v2)
Трек 14 : извлечено точно (доверие 13) [E2732D1A] (AR v2)

Все треки извлечены точно

Конец отчёта

==== Контрольная сумма отчёта F6F0B9BF4F84BA050E857C6986A234C1A6E6675771625F63ECF8376C49AAC866 ====


[CUETools log; Date: 25.07.2021 19:13:07; Version: 2.1.4]
[AccurateRip ID: 001e447b-013e54e1-d80d660e] found.
Track [ CRC | V2 ] Status
01 [2f99c457|1b7cafd5] (169+200/1005) Accurately ripped
02 [d601b0f1|3d92aef9] (170+200/1014) Accurately ripped
03 [c52345a9|bbfc70ea] (170+200/1014) Accurately ripped
04 [d3493d9b|d37328ff] (167+200/1013) Accurately ripped
05 [cd3d3c09|3eba2eb9] (170+200/1017) Accurately ripped
06 [1530b13d|cc3a8ad4] (169+200/1012) Accurately ripped
07 [52b79b75|82e28fbe] (167+200/1007) Accurately ripped
08 [ed81eeab|295bea3c] (167+200/1006) Accurately ripped
09 [f0e24700|1ed8c12e] (170+200/1013) Accurately ripped
10 [75926882|fe4bd6bd] (169+200/1006) Accurately ripped
11 [5a56485d|54d793ac] (164+200/1007) Accurately ripped
12 [45119e93|762de682] (163+200/1004) Accurately ripped
13 [7aaa9998|55756342] (165+200/1009) Accurately ripped
14 [07e8e061|e2732d1a] (158+200/1021) Accurately ripped
Offsetted by -706:
01 [23bbcc3a] (015/1005) Accurately ripped
02 [48971cd2] (016/1014) Accurately ripped
03 [bbe1cbcc] (016/1014) Accurately ripped
04 [07ef794d] (016/1013) Accurately ripped
05 [9aded5f7] (016/1017) Accurately ripped
06 [1483f609] (016/1012) Accurately ripped
07 [28de3a13] (016/1007) Accurately ripped
08 [5e259076] (016/1006) Accurately ripped
09 [d8179ae1] (016/1013) Accurately ripped
10 [1cbad88c] (016/1006) Accurately ripped
11 [a9a9470b] (016/1007) Accurately ripped
12 [22eaff76] (016/1004) Accurately ripped
13 [ca56976a] (017/1009) Accurately ripped
14 [019f73fe] (015/1021) Accurately ripped
Offsetted by -658:
01 [de197a2e] (018/1005) Accurately ripped
02 [68876341] (017/1014) Accurately ripped
03 [13f645b2] (017/1014) Accurately ripped
04 [a2958b9b] (017/1013) Accurately ripped
05 [2fd9cb13] (017/1017) Accurately ripped
06 [fc6f86ce] (017/1012) Accurately ripped
07 [02337ba3] (017/1007) Accurately ripped
08 [9be775e1] (017/1006) Accurately ripped
09 [dbbf6508] (017/1013) Accurately ripped
10 [15aa7aa7] (017/1006) Accurately ripped
11 [e0bad4e9] (017/1007) Accurately ripped
12 [e50a22fc] (017/1004) Accurately ripped
13 [c65e92e7] (017/1009) Accurately ripped
14 [f476f284] (017/1021) Accurately ripped
Offsetted by -126:
01 [0811cb1d] (007/1005) Accurately ripped
02 [5187fe0c] (008/1014) Accurately ripped
03 [8ec7255e] (008/1014) Accurately ripped
04 [96f70e7e] (007/1013) Accurately ripped
05 [af7a633c] (008/1017) Accurately ripped
06 [f8850084] (008/1012) Accurately ripped
07 [c9162736] (008/1007) Accurately ripped
08 [2c131c58] (008/1006) Accurately ripped
09 [d8bef933] (008/1013) Accurately ripped
10 [7c62870a] (007/1006) Accurately ripped
11 [754cac08] (007/1007) Accurately ripped
12 [e0dafeb3] (007/1004) Accurately ripped
13 [1894ef02] (006/1009) Accurately ripped
14 [0be89d6c] (008/1021) Accurately ripped
Offsetted by -60:
01 [1c9b621d] (007/1005) Accurately ripped
02 [28034f74] (008/1014) Accurately ripped
03 [df41635c] (008/1014) Accurately ripped
04 [1876a106] (007/1013) Accurately ripped
05 [e31a8ac5] (008/1017) Accurately ripped
06 [527913f8] (008/1012) Accurately ripped
07 [9360fe51] (007/1007) Accurately ripped
08 [f217e1c0] (008/1006) Accurately ripped
09 [085549ab] (008/1013) Accurately ripped
10 [48aa2031] (008/1006) Accurately ripped
11 [c189a49f] (007/1007) Accurately ripped
12 [4fbcef1f] (006/1004) Accurately ripped
13 [66e4bd8d] (007/1009) Accurately ripped
14 [33d9d2f8] (007/1021) Accurately ripped
Offsetted by -36:
01 [c0d93bee] (006/1005) Accurately ripped
02 [b324ed1d] (007/1014) Accurately ripped
03 [cc95aa42] (007/1014) Accurately ripped
04 [2407794a] (007/1013) Accurately ripped
05 [fb71d29f] (007/1017) Accurately ripped
06 [ec9b7c8a] (007/1012) Accurately ripped
07 [8bac12db] (007/1007) Accurately ripped
08 [d967c237] (007/1006) Accurately ripped
09 [1e87be33] (007/1013) Accurately ripped
10 [c0226d26] (007/1006) Accurately ripped
11 [a73d9a12] (007/1007) Accurately ripped
12 [5f1dabfb] (007/1004) Accurately ripped
13 [eaa7fa5c] (007/1009) Accurately ripped
14 [fb3ed1f9] (006/1021) Accurately ripped
Offsetted by -24:
01 [2ae3c281] (003/1005) Accurately ripped
02 [f91f1336] (003/1014) Accurately ripped
03 [c38a88ba] (003/1014) Accurately ripped
04 [2a6c0378] (003/1013) Accurately ripped
05 [85a4c3ca] (003/1017) Accurately ripped
06 [3a6dd8be] (003/1012) Accurately ripped
07 [b78c295c] (003/1007) Accurately ripped
08 [721a0e4c] (003/1006) Accurately ripped
09 [ba1aa565] (003/1013) Accurately ripped
10 [fad91877] (003/1006) Accurately ripped
11 [3e451ca2] (003/1007) Accurately ripped
12 [913938a7] (003/1004) Accurately ripped
13 [f0d1da19] (003/1009) Accurately ripped
14 [fe8e016d] (003/1021) Accurately ripped
Offsetted by -12:
01 [0fbc26d8] (002/1005) Accurately ripped
02 [3f24394e] (002/1014) Accurately ripped
03 [313bdd47] (002/1014) Accurately ripped
04 [cd9e5189] (002/1013) Accurately ripped
05 [a95d7fe7] (002/1017) Accurately ripped
06 [37e6c4ff] (002/1012) Accurately ripped
07 [852ce269] (002/1007) Accurately ripped
08 [c1dc7e7f] (002/1006) Accurately ripped
09 [81ef5fbe] (002/1013) Accurately ripped
10 [384fc080] (002/1006) Accurately ripped
11 [677a327f] (002/1007) Accurately ripped
12 [68c6c00b] (002/1004) Accurately ripped
13 [f11d3731] (002/1009) Accurately ripped
14 [033870ec] (002/1021) Accurately ripped
Offsetted by -6:
01 [cafd89a3] (014/1005) Accurately ripped
02 [0a3d1ddc] (014/1014) Accurately ripped
03 [bfc6d66d] (014/1014) Accurately ripped
04 [d112e5a0] (014/1013) Accurately ripped
05 [bb912b3b] (015/1017) Accurately ripped
06 [cf04ab0e] (015/1012) Accurately ripped
07 [eb456177] (015/1007) Accurately ripped
08 [45a43697] (015/1006) Accurately ripped
09 [b960d35d] (015/1013) Accurately ripped
10 [dde017be] (014/1006) Accurately ripped
11 [973fbd6e] (015/1007) Accurately ripped
12 [d6eaaf4e] (015/1004) Accurately ripped
13 [3591a710] (016/1009) Accurately ripped
14 [352f58a2] (016/1021) Accurately ripped
Offsetted by 6:
01 [e53f271b] (200/1005) Accurately ripped
02 [f3484408] (200/1014) Accurately ripped
03 [3fdb3ecc] (200/1014) Accurately ripped
04 [d6b1d1ae] (200/1013) Accurately ripped
05 [151681e9] (200/1017) Accurately ripped
06 [3b43b76a] (200/1012) Accurately ripped
07 [b97777fa] (200/1007) Accurately ripped
08 [955da6bf] (200/1006) Accurately ripped
09 [81838dc8] (200/1013) Accurately ripped
10 [149ebfbe] (200/1006) Accurately ripped
11 [53bdd34c] (200/1007) Accurately ripped
12 [b291e4f2] (200/1004) Accurately ripped
13 [3c730978] (200/1009) Accurately ripped
14 [39242808] (200/1021) Accurately ripped
Offsetted by -1328:
01 [6a2a12d3] (000/1005) No match (V2 was not tested)
02 [4554e74c] (000/1014) No match (V2 was not tested)
03 [ca06eb20] (000/1014) No match (V2 was not tested)
04 [10448667] (000/1013) No match (V2 was not tested)
05 [5e1f32a0] (000/1017) No match (V2 was not tested)
06 [0caa398a] (000/1012) No match (V2 was not tested)
07 [af4da608] (000/1007) No match (V2 was not tested)
08 [86753b16] (000/1006) No match (V2 was not tested)
09 [251ac62c] (000/1013) No match (V2 was not tested)
10 [4212dae0] (000/1006) No match (V2 was not tested)
11 [2a64089d] (000/1007) No match (V2 was not tested)
12 [6bb7c27f] (000/1004) No match (V2 was not tested)
13 [2193b15d] (000/1009) No match (V2 was not tested)
14 [94ab514f] (000/1021) No match (V2 was not tested)
Offsetted by -750:
01 [e24bbcb5] (000/1005) No match (V2 was not tested)
02 [99ca3c29] (000/1014) No match (V2 was not tested)
03 [9b6b7b71] (000/1014) No match (V2 was not tested)
04 [e567b5a7] (000/1013) No match (V2 was not tested)
05 [769832dd] (000/1017) No match (V2 was not tested)
06 [7131b3a1] (000/1012) No match (V2 was not tested)
07 [c2c3f15b] (000/1007) No match (V2 was not tested)
08 [f1822603] (000/1006) No match (V2 was not tested)
09 [27b7f51b] (000/1013) No match (V2 was not tested)
10 [e4c96e54] (000/1006) No match (V2 was not tested)
11 [e74c6b0f] (000/1007) No match (V2 was not tested)
12 [6e7f2632] (000/1004) No match (V2 was not tested)
13 [41330ec3] (000/1009) No match (V2 was not tested)
14 [0672cfa6] (000/1021) No match (V2 was not tested)
Offsetted by -745:
01 [21b159f1] (000/1005) No match
02 [8f530fd3] (000/1014) No match
03 [7fac82cc] (000/1014) No match
04 [f0c639f9] (002/1013) Accurately ripped
05 [ba79b17a] (002/1017) Accurately ripped
06 [b7560610] (002/1012) Accurately ripped
07 [af8b7e65] (000/1007) No match (V2 was not tested)
08 [629387a9] (000/1006) No match
09 [2f8e2adb] (000/1013) No match
10 [91f0b43b] (000/1006) No match
11 [68218980] (000/1007) No match
12 [81466be1] (000/1004) No match
13 [e699c3d4] (000/1009) No match
14 [1af590dd] (000/1021) No match
Offsetted by -733:
01 [3ff1a74e] (002/1005) Accurately ripped
02 [829e35d3] (002/1014) Accurately ripped
03 [78e0d753] (000/1014) No match (V2 was not tested)
04 [f57b2614] (000/1013) No match
05 [77ffd303] (000/1017) No match
06 [4491827d] (000/1012) No match
07 [7d593756] (000/1007) No match
08 [8e29f7f5] (000/1006) No match
09 [24cf123d] (000/1013) No match
10 [d3f05f38] (000/1006) No match
11 [5a356907] (000/1007) No match
12 [06a2f371] (000/1004) No match
13 [e58e9ded] (000/1009) No match
14 [debdc08e] (000/1021) No match
Offsetted by -727:
01 [fb45f328] (000/1005) No match (V2 was not tested)
02 [9df16bd2] (000/1014) No match (V2 was not tested)
03 [08f54688] (000/1014) No match (V2 was not tested)
04 [bbba1c22] (000/1013) No match (V2 was not tested)
05 [252418dd] (000/1017) No match (V2 was not tested)
06 [6be76897] (000/1012) No match (V2 was not tested)
07 [8610b658] (000/1007) No match (V2 was not tested)
08 [35fdb01a] (000/1006) No match (V2 was not tested)
09 [886c5911] (000/1013) No match (V2 was not tested)
10 [764bb316] (000/1006) No match (V2 was not tested)
11 [8a5b2a54] (000/1007) No match (V2 was not tested)
12 [73ed39de] (000/1004) No match (V2 was not tested)
13 [24630da7] (000/1009) No match (V2 was not tested)
14 [b1ca4877] (000/1021) No match (V2 was not tested)
Offsetted by -691:
01 [ad78370d] (000/1005) No match (V2 was not tested)
02 [cafe3ac9] (000/1014) No match (V2 was not tested)
03 [7bc56bcd] (000/1014) No match (V2 was not tested)
04 [513a425c] (000/1013) No match (V2 was not tested)
05 [95a21cd3] (000/1017) No match (V2 was not tested)
06 [759c9d56] (000/1012) No match (V2 was not tested)
07 [4c50e154] (000/1007) No match (V2 was not tested)
08 [00172506] (000/1006) No match (V2 was not tested)
09 [69f168ef] (000/1013) No match (V2 was not tested)
10 [2ae8ad6c] (000/1006) No match (V2 was not tested)
11 [98bba269] (000/1007) No match (V2 was not tested)
12 [5eb8d5c3] (000/1004) No match (V2 was not tested)
13 [a787297d] (000/1009) No match (V2 was not tested)
14 [3fcc57a0] (000/1021) No match (V2 was not tested)
Offsetted by -682:
01 [b7afa04c] (000/1005) No match (V2 was not tested)
02 [819a1745] (000/1014) No match (V2 was not tested)
03 [35729c91] (000/1014) No match (V2 was not tested)
04 [d5755178] (000/1013) No match (V2 was not tested)
05 [7d4f8349] (000/1017) No match (V2 was not tested)
06 [afcfce81] (000/1012) No match (V2 was not tested)
07 [6681ac18] (000/1007) No match (V2 was not tested)
08 [fbcdb946] (000/1006) No match (V2 was not tested)
09 [c3c2966b] (000/1013) No match (V2 was not tested)
10 [990e27f9] (000/1006) No match (V2 was not tested)
11 [8e9f72d1] (000/1007) No match (V2 was not tested)
12 [844265a9] (000/1004) No match (V2 was not tested)
13 [47355124] (000/1009) No match (V2 was not tested)
14 [2b25b352] (000/1021) No match (V2 was not tested)
Offsetted by -661:
01 [ac9e7965] (002/1005) Accurately ripped
02 [2bad19c4] (002/1014) Accurately ripped
03 [d5d90e14] (002/1014) Accurately ripped
04 [21561092] (002/1013) Accurately ripped
05 [599d756d] (002/1017) Accurately ripped
06 [e8745bd2] (002/1012) Accurately ripped
07 [4ed68d60] (002/1007) Accurately ripped
08 [47fd99c9] (002/1006) Accurately ripped
09 [1322ab35] (002/1013) Accurately ripped
10 [45b64d7c] (002/1006) Accurately ripped
11 [e4228f74] (002/1007) Accurately ripped
12 [2e0d2b4f] (002/1004) Accurately ripped
13 [e237585c] (002/1009) Accurately ripped
14 [dc241ead] (000/1021) No match (V2 was not tested)
Offsetted by -655:
01 [2d0ea30a] (000/1005) No match (V2 was not tested)
02 [a4b5fe3d] (000/1014) No match (V2 was not tested)
03 [51610739] (000/1014) No match (V2 was not tested)
04 [23d606a4] (000/1013) No match (V2 was not tested)
05 [061520b9] (000/1017) No match (V2 was not tested)
06 [0fdf41da] (000/1012) No match (V2 was not tested)
07 [b63dc75e] (000/1007) No match (V2 was not tested)
08 [eefd7610] (000/1006) No match (V2 was not tested)
09 [a45c1edb] (000/1013) No match (V2 was not tested)
10 [e4c0a159] (000/1006) No match (V2 was not tested)
11 [a6fc1a5f] (000/1007) No match (V2 was not tested)
12 [9c071aa8] (000/1004) No match (V2 was not tested)
13 [268bc822] (000/1009) No match (V2 was not tested)
14 [0d85666a] (000/1021) No match (V2 was not tested)
Offsetted by -594:
01 [e52cbf65] (000/1005) No match (V2 was not tested)
02 [8e36d87b] (000/1014) No match (V2 was not tested)
03 [241a5139] (000/1014) No match (V2 was not tested)
04 [7f8ad90c] (000/1013) No match (V2 was not tested)
05 [570a640b] (000/1017) No match (V2 was not tested)
06 [b4779290] (000/1012) No match (V2 was not tested)
07 [5faa5644] (000/1007) No match (V2 was not tested)
08 [faa02276] (000/1006) No match (V2 was not tested)
09 [60960dfd] (000/1013) No match (V2 was not tested)
10 [123effa5] (000/1006) No match (V2 was not tested)
11 [958abe0b] (000/1007) No match (V2 was not tested)
12 [9a4dc69f] (000/1004) No match (V2 was not tested)
13 [570be5ea] (000/1009) No match (V2 was not tested)
14 [7f415ad6] (000/1021) No match (V2 was not tested)
Offsetted by -188:
01 [010addf6] (000/1005) No match (V2 was not tested)
02 [e03cb5ac] (000/1014) No match (V2 was not tested)
03 [005ffcf2] (000/1014) No match (V2 was not tested)
04 [ed27f00a] (000/1013) No match (V2 was not tested)
05 [b4988985] (000/1017) No match (V2 was not tested)
06 [4389cbdd] (000/1012) No match (V2 was not tested)
07 [45be48bb] (000/1007) No match (V2 was not tested)
08 [5bd0f59f] (000/1006) No match (V2 was not tested)
09 [c0c1cd10] (000/1013) No match (V2 was not tested)
10 [6e46269b] (000/1006) No match (V2 was not tested)
11 [9d872e9a] (000/1007) No match (V2 was not tested)
12 [2ff2aa64] (000/1004) No match (V2 was not tested)
13 [d0741b1d] (000/1009) No match (V2 was not tested)
14 [5c71e2b7] (000/1021) No match (V2 was not tested)
Offsetted by -132:
01 [6a209067] (000/1005) No match (V2 was not tested)
02 [d77e6b04] (000/1014) No match (V2 was not tested)
03 [89ee2c31] (000/1014) No match (V2 was not tested)
04 [937c7a5e] (000/1013) No match (V2 was not tested)
05 [02f0b7f3] (000/1017) No match (V2 was not tested)
06 [4257fa53] (000/1012) No match (V2 was not tested)
07 [c040a824] (000/1007) No match (V2 was not tested)
08 [605e6438] (000/1006) No match (V2 was not tested)
09 [47b185a9] (000/1013) No match (V2 was not tested)
10 [ddf13647] (000/1006) No match (V2 was not tested)
11 [7c3c5763] (000/1007) No match (V2 was not tested)
12 [72df0f77] (000/1004) No match (V2 was not tested)
13 [5612fc7d] (000/1009) No match (V2 was not tested)
14 [39cab5aa] (000/1021) No match (V2 was not tested)
Offsetted by -127:
01 [c7f45b56] (000/1005) No match (V2 was not tested)
02 [ccb09034] (000/1014) No match (V2 was not tested)
03 [f6ddbd7d] (000/1014) No match (V2 was not tested)
04 [01d99cc4] (000/1013) No match (V2 was not tested)
05 [100d66f4] (000/1017) No match (V2 was not tested)
06 [a6e5fce4] (000/1012) No match (V2 was not tested)
07 [4e437a52] (000/1007) No match (V2 was not tested)
08 [aec67da9] (000/1006) No match (V2 was not tested)
09 [5025e823] (000/1013) No match (V2 was not tested)
10 [8e157c46] (000/1006) No match (V2 was not tested)
11 [33273f88] (000/1007) No match (V2 was not tested)
12 [dc27ac29] (000/1004) No match (V2 was not tested)
13 [f5d82f0a] (000/1009) No match (V2 was not tested)
14 [8efa16d9] (000/1021) No match (V2 was not tested)
Offsetted by -121:
01 [486e7976] (000/1005) No match (V2 was not tested)
02 [9838233c] (000/1014) No match
03 [72832cc0] (000/1014) No match
04 [a35f30e1] (000/1013) No match
05 [57acacca] (000/1017) No match
06 [ce21e2f6] (000/1012) No match
07 [b5ecb453] (000/1007) No match
08 [9e9935c7] (000/1006) No match
09 [b44f5bac] (000/1013) No match
10 [302fd048] (000/1006) No match
11 [f662ca84] (000/1007) No match
12 [f85e9b66] (000/1004) No match
13 [3a569ee7] (000/1009) No match
14 [1f89be82] (000/1021) No match
Offsetted by -120:
01 [a6e7226e] (000/1005) No match
02 [1d0f9113] (000/1014) No match
03 [0a6b94a1] (000/1014) No match
04 [99d5048e] (000/1013) No match
05 [5c030e8a] (000/1017) No match
06 [af4476a6] (000/1012) No match
07 [d1eaa647] (000/1007) No match
08 [1be7d477] (000/1006) No match
09 [6b01c674] (000/1013) No match
10 [1e7adb0c] (000/1006) No match
11 [6f626d5c] (000/1007) No match (V2 was not tested)
12 [fd12edf0] (000/1004) No match
13 [5d105edf] (000/1009) No match (V2 was not tested)
14 [debf253b] (000/1021) No match
Offsetted by -114:
01 [61715d26] (000/1005) No match (V2 was not tested)
02 [971c241b] (000/1014) No match (V2 was not tested)
03 [861103e5] (000/1014) No match (V2 was not tested)
04 [3bed36b1] (000/1013) No match (V2 was not tested)
05 [6d7b1f55] (000/1017) No match (V2 was not tested)
06 [6606ecc8] (000/1012) No match (V2 was not tested)
07 [f52a3dbe] (000/1007) No match (V2 was not tested)
08 [e7ae8c97] (000/1006) No match (V2 was not tested)
09 [a10be042] (000/1013) No match (V2 was not tested)
10 [bdbe324c] (000/1006) No match (V2 was not tested)
11 [687cc1ff] (000/1007) No match (V2 was not tested)
12 [1955dd2f] (000/1004) No match (V2 was not tested)
13 [1ed3cebc] (000/1009) No match (V2 was not tested)
14 [10136cf0] (000/1021) No match (V2 was not tested)
Offsetted by -102:
01 [91d8d294] (000/1005) No match (V2 was not tested)
02 [8b404a2e] (000/1014) No match (V2 was not tested)
03 [0743e26b] (000/1014) No match (V2 was not tested)
04 [419622c0] (000/1013) No match (V2 was not tested)
05 [61b21088] (000/1017) No match (V2 was not tested)
06 [2363d912] (000/1012) No match (V2 was not tested)
07 [64d8994e] (000/1007) No match (V2 was not tested)
08 [efbed8c4] (000/1006) No match (V2 was not tested)
09 [c4502108] (000/1013) No match (V2 was not tested)
10 [f82eda4e] (000/1006) No match (V2 was not tested)
11 [92740e50] (000/1007) No match (V2 was not tested)
12 [f622648e] (000/1004) No match
13 [1f9eae75] (000/1009) No match
14 [d42a3c7a] (000/1021) No match
More than 16 offsets match!

Track Peak [ CRC32 ] [W/O NULL] [ LOG ]
– 100,0 [39075D84] [9B06A172] CRC32
01 100,0 [374D3DB3] [F17AE51A]
02 95,5 [0273810C] [F5CAB08F]
03 95,9 [5A9516CB] [C77CC302]
04 99,6 [47479945] [B0264CC9]
05 98,8 [B54420E7] [0AC78A36]
06 98,8 [61ED61D7] [F1A43EC7]
07 98,7 [EA207EB0] [38BF2995]
08 98,8 [C0D6B6EA] [9AED9304]
09 93,3 [DEBA9ED4] [0294D533]
10 98,8 [D73CE826] [2E78DFF7]
11 98,8 [8217F39F] [EA89C325]
12 98,8 [80AB3B51] [B11D3E1D]
13 98,8 [8872F5DF] [830D086E]
14 97,9 [4A9FF8AD] [B698C3DE]


J.J. Cale & Eric Clapton - The Road To Escondido (2006)

All thanks go to the original releaser

Eric Clapton in my Blog

Download J.J. Cale & Eric Clapton - The Road To Escondido (2006):