Subcategories

Rory Gallagher - Etched in Blue - 1998

Posted By: mfrwiz
Rory Gallagher - Etched in Blue - 1998

Rory Gallagher - Etched in Blue - 1998
Lossless (Flac Image File + Cue + Log + Audiochecker Log): 439 Mb | EAC Secure Mode Rip | Mp3 (Fraunhofer IIS - 320 kbps): 154 Mb | HQ Scans | Rar Files (3% Recovery)
Audio CD (December 7, 1998) - Original Release Date: 1992 - Number of Discs: 1 - Format: Original Recording Remastered - Label: Camden - Catalog Number: 74321 627972
Rock, Pop/Rock

Product Description: Irish Guitar star Rory Gallagher's ETCHED IN BLUE features 14 tracks including "I'm Not Surprised," "Crest Of A Wave," and "Bad Penny." Etched in Blue is a solid, if not exactly definitive, retrospective of Rory Gallagher's career that offers a fine introduction to the Irish blues star. Reissue of the late Irish rock guitarist's 1992 hits compwith live recordings of 'Too Much Alcohol', 'I Could HaveHad Religion' & 'Shin Kicker' added as bonus tracks, for atotal of 14 cuts. 1998 Camden release. Digitally remastered material.

Reviews #1: Rory Gallagher the classic blues rock guitarist that could turn his hand to anything he wanted…he was a man with very special talents and this cd showcasses 14 of them all classic some jazz rock and some just plain boogie rock and you also get 3 live tracks that are outstanding..i can't believe the other reviewer saying that gallagher's lyrics were weak they must be joking in aall the songs i've heard no duff lyrics just pure genius from a sadly under-rated genius who's sadly missed in the rock and blues world R.I.P Rory Gallagher. ~ Amazon Customer

Rory Gallagher - Etched in Blue - 1998

#2: This compilation basically cherry-picks one track from each of Rory Gallagher's albums - and still manages to be an enjoyable listen in its own right.
If you're already a fan of Gallagher then you probably have some of these tracks on the original albums, but this CD is a good way of picking up a selection of Rory's other work at a low price. If, on the other hand, you haven't heard much of Rory then this is an excellent place to start.
Highlights for me are the almost-title-track 'Edged In Blue', the rocking 'Devil Made Me Do It' and the stomping John Lee Hooker-esque 'I Could've Had Religion' (taken from 1971's barnstorming 'Live In Europe' - I regard this as the album which introduced me to the blues). Every blues fan should have at least one album by the greatest bluesman to come out of Cork, once described as 'Stevie Ray Vaughan's separated-at birth Irish twin'!
Rory Gallagher - Etched in Blue - 1998
Track Listing:
01 - Loanshark Blues (1987) - 4:33
02 - Bought & Sold (1975) - 3:29
03 - Bad Penny (1979) - 4:04
04 - Cruise On Out (1978) - 4:46
05 - Crest Of A Wave (1971) - 6:03
06 - I'm Not Surprised (1971) - 3:41
07 - Unmilitary Two-Step (1973) - 2:53
08 - Alexis (1990) - 4:11
09 - Edged In Blue (1976) - 5:34
10 - They Don't Make Them Like You Any More (1973) - 4:10
11 - The Devil Made Me Do It (1982) - 3:00
12 - Too Much Alchohol (live) (1974) - 8:28
13 - I Could Have Had Religion (live) (1972) - 8:24
14 - Shin Kicker (live) (1980) - 3:43
Rory Gallagher - Etched in Blue - 1998
Personnel:
Rory Gallagher - vocals, guitar
Gerry McAvoy - bass guitar
Lou Martin - guitar, keyboards
Vincent Crane - piano

If you discover any dead links in any of my posts,
Please Send Me a Private Message !!!!

AUDIOCHECKER v2.0 beta (build 457) - by Dester - opdester@freemail.hu
~~~~~~~~~~~~~~~~~~~~~~~~~~~~~~~~~~
-=== DO NOT EDIT THIS FILE! ===-

Path: …\Qjg8LMDC

1 -=- Rory Gallagher - Etched In Blue - 1998.flac -=- CDDA (100%)

193687156

Exact Audio Copy V0.99 prebeta 5 from 4. May 2009

EAC extraction logfile from 29. December 2009, 14:29

Rory Gallagher / Etched In Blue (Best Of) (comp) (1998)

Used drive : Pioneer BDR-203BK Adapter: 7 ID: 0

Read mode : Secure
Utilize accurate stream : Yes
Defeat audio cache : Yes
Make use of C2 pointers : No

Read offset correction : 667
Overread into Lead-In and Lead-Out : No
Fill up missing offset samples with silence : Yes
Delete leading and trailing silent blocks : No
Null samples used in CRC calculations : Yes
Used interface : Native Win32 interface for Win NT & 2000

Used output format : User Defined Encoder
Selected bitrate : 192 kBit/s
Quality : High
Add ID3 tag : No
Command line compressor : C:\Programmi\FLAC\flac.exe
Additional command line options : -T "artist=%a" -T "title=%t" -T "album=%g" -T "date=%y" -T "tracknumber=%n" -T "genre=%m" -5 %s


TOC of the extracted CD

Track | Start | Length | Start sector | End sector
––––––––––––––––––––––––––––-
1 | 0:00.00 | 4:32.60 | 0 | 20459
2 | 4:32.60 | 3:28.64 | 20460 | 36123
3 | 8:01.49 | 4:03.51 | 36124 | 54399
4 | 12:05.25 | 4:45.64 | 54400 | 75838
5 | 16:51.14 | 6:02.60 | 75839 | 103048
6 | 22:53.74 | 3:41.00 | 103049 | 119623
7 | 26:34.74 | 2:53.12 | 119624 | 132610
8 | 29:28.11 | 4:10.42 | 132611 | 151402
9 | 33:38.53 | 5:33.48 | 151403 | 176425
10 | 39:12.26 | 4:10.19 | 176426 | 195194
11 | 43:22.45 | 2:59.45 | 195195 | 208664
12 | 46:22.15 | 8:28.36 | 208665 | 246800
13 | 54:50.51 | 8:24.03 | 246801 | 284603
14 | 63:14.54 | 3:42.51 | 284604 | 301304


Range status and errors

Selected range

Filename F:\Downloads\uTorrent\Completati\Rory Gallagher - Etched in Blue - 1998\Qjg8LMDC\Rory Gallagher - Etched In Blue - 1998.wav

Peak level 97.7 %
Range quality 100.0 %
Copy CRC 6A0C02E2
Copy OK

No errors occurred

End of status report