Subcategories

St. Jacob’s Kammarkör & Gary Graden - Et lux perpetua (2017)

Posted By: SERTiL
St. Jacob’s Kammarkör & Gary Graden - Et lux perpetua (2017)

St. Jacob’s Kammarkör & Gary Graden - Et lux perpetua
Classical, Choral | WEB FLAC (tracks) & d. booklet | 67:52 min | 322 MB
Label: Carus | Tracks: 13 | Rls.date: 2017

Damijan Mocnik graduated from Ljubljana Academy of Music where he studied composition Dane Skerl and furthered his conducting skills abroad with Eric Ericsson. Since 1993 he has served as music professor, conductor, and head of music at St. Stanislav’s Institution, Ljublijana. He conceived a “choral pyramid” that remains important in Slovenian choral life. Over the last 30 years, he has won many awards with his choirs, especially St. Stanislav Youth Choir and Megaron Chamber choir. He is the founder and artistic leader of Slovenian Children’s choir. Mocnik participates in expert councils at choral events, lectures at symposiums, and is a juror at home and abroad. He is among the most performed contemporary Slovenian composers abroad. His music is performed worldwide by professional and top amateur choirs, and has been recorded on numerous albums. Here the St. Jacobs Kammarkor Stokholm, under the direction of Gary Graden and in collaboration with the composer himself, present this release with five of Mocnik’s sacred choral works, supported by a strings ensemble from the Royal College of Music in Stockholm and the two percussionists Anders Astrand and Henrik Stahlberg.

Tracklist:
01. Acclamatio
02. Missa Sancti Francisci Assisiensis: I. Kyrie
03. Missa Sancti Francisci Assisiensis: II. Gloria
04. Missa Sancti Francisci Assisiensis: III. Credo
05. Missa Sancti Francisci Assisiensis: IV. Sanctus
06. Missa Sancti Francisci Assisiensis: V. Agnus Dei
07. Geburts-Nacht
08. Missa Sancti Jacobi: I. Kyrie
09. Missa Sancti Jacobi: II. Gloria
10. Missa Sancti Jacobi: III. Credo
11. Missa Sancti Jacobi: IV. Sanctus
12. Missa Sancti Jacobi: V. Agnus Dei
13. Et lux perpetua

PERFORMER: auCDtect Task Manager, ver. 1.6.0 RC1 build 1.6.0.1
Copyright © 2008-2010 y-soft. All rights reserved

ANALYZER: auCDtect: CD records authenticity detector, version 0.8.2
Copyright © 2004 Oleg Berngardt. All rights reserved.
Copyright © 2004 Alexander Djourik. All rights reserved.


FILE: 13. Et lux perpetua.flac
Size: 31710125 Hash: AFB8E0735501572817E53B2974F7EF94 Accuracy: -m0
Conclusion: CDDA 100%
Signature: 92AEFF04870964D7BE06DF9AFCD12D9F0F672E3A
FILE: 12. Missa Sancti Jacobi V. Agnus Dei.flac
Size: 24528622 Hash: EEB663C0767F9009AFB4940B5237E4CC Accuracy: -m0
Conclusion: CDDA 42%
Signature: 5E371CEEE399D32D62246924ABB41DAC9AE9AE21
FILE: 11. Missa Sancti Jacobi IV. Sanctus.flac
Size: 27606775 Hash: 3032BFD839D19F567BEECCF04FBD8F34 Accuracy: -m0
Conclusion: CDDA 100%
Signature: C2CAC031B1E3A4D8BABFC12086EF9847FDDC7A1C
FILE: 10. Missa Sancti Jacobi III. Credo.flac
Size: 26007120 Hash: 13AE999AA8D69402A35C8B355BDAF411 Accuracy: -m0
Conclusion: CDDA 86%
Signature: 3BEFBBB2C42A77527543EBB8AAD905E6C701720B
FILE: 09. Missa Sancti Jacobi II. Gloria.flac
Size: 37534094 Hash: 86AC8C10DFF8F443F3F32F11466FAC9F Accuracy: -m0
Conclusion: CDDA 100%
Signature: 11D079C10163BC19501A55B6AC90149E851817DB
FILE: 08. Missa Sancti Jacobi I. Kyrie.flac
Size: 26102529 Hash: 3056AA3D19251EF5C06C5DF0C4985B6A Accuracy: -m0
Conclusion: CDDA 92%
Signature: 61F6AE11B5565F0DA8F6846259D3C62A163E027C
FILE: 07. Geburts-Nacht.flac
Size: 17624688 Hash: B18C745AE2AC809BE950512FA31E6532 Accuracy: -m0
Conclusion: CDDA 100%
Signature: E585F878BDC104FA51B788FDF0E45ECCFE95D31A
FILE: 06. Missa Sancti Francisci Assisiensis V. Agnus Dei.flac
Size: 20417694 Hash: 2F2908B41D62DE789E1211BAD45FE83B Accuracy: -m0
Conclusion: CDDA 100%
Signature: 83855A4BAAE676FDD09020A01AD704F30A849D06
FILE: 05. Missa Sancti Francisci Assisiensis IV. Sanctus.flac
Size: 23806268 Hash: 2DE6B9574A2FFBE910760D68BEA0D2BB Accuracy: -m0
Conclusion: CDDA 99%
Signature: A41ADADCFED98F77B8997715C925FD460AEDE4DD
FILE: 04. Missa Sancti Francisci Assisiensis III. Credo.flac
Size: 41250558 Hash: 5DBE2B2D575AA4123A8F014C52B0D7E5 Accuracy: -m0
Conclusion: CDDA 99%
Signature: 022EAC18B3A2612238A0F5F5F86D91687B7A091A
FILE: 03. Missa Sancti Francisci Assisiensis II. Gloria.flac
Size: 21412195 Hash: C35224FCE85121A64977334BA74E06C9 Accuracy: -m0
Conclusion: CDDA 100%
Signature: 5CB15C3108A876F0CF89A4DC31D5AD90034F8CFE
FILE: 02. Missa Sancti Francisci Assisiensis I. Kyrie.flac
Size: 21044560 Hash: 316276856D0A9E591AC54D9341934ED0 Accuracy: -m0
Conclusion: CDDA 100%
Signature: 75EF0616D17E800AD6EAB3195AA74DA30F1463D5
FILE: 01. Acclamatio.flac
Size: 15060301 Hash: EBE6F8DEF7EC666867074DF2B5BF8BB9 Accuracy: -m0
Conclusion: CDDA 100%
Signature: 01208C7C81BC06963AEA3446A91501EDF6D95D00

foobar2000 1.3.7 / Dynamic Range Meter 1.1.1
log date: 2017-10-25 17:22:08

––––––––––––––––––––––––––––––––––––––––
Analyzed: St. Jacob’s Kammarkör, Gary Graden / Et lux perpetua
––––––––––––––––––––––––––––––––––––––––

DR Peak RMS Duration Track
––––––––––––––––––––––––––––––––––––––––
DR9 -1.68 dB -14.72 dB 2:53 01-Acclamatio
DR11 -1.71 dB -17.52 dB 3:51 02-Missa Sancti Francisci Assisiensis: I. Kyrie
DR8 -1.24 dB -12.85 dB 3:41 03-Missa Sancti Francisci Assisiensis: II. Gloria
DR9 -1.17 dB -15.17 dB 8:19 04-Missa Sancti Francisci Assisiensis: III. Credo
DR10 -1.19 dB -16.35 dB 4:35 05-Missa Sancti Francisci Assisiensis: IV. Sanctus
DR14 -1.47 dB -20.69 dB 3:54 06-Missa Sancti Francisci Assisiensis: V. Agnus Dei
DR11 -1.26 dB -17.35 dB 3:48 07-Geburts-Nacht
DR9 -1.04 dB -14.16 dB 5:47 08-Missa Sancti Jacobi: I. Kyrie
DR9 -1.04 dB -13.43 dB 7:35 09-Missa Sancti Jacobi: II. Gloria
DR8 -1.04 dB -12.59 dB 5:00 10-Missa Sancti Jacobi: III. Credo
DR7 -1.04 dB -13.18 dB 5:31 11-Missa Sancti Jacobi: IV. Sanctus
DR12 -1.04 dB -18.34 dB 5:42 12-Missa Sancti Jacobi: V. Agnus Dei
DR12 -1.34 dB -20.15 dB 7:23 13-Et lux perpetua
––––––––––––––––––––––––––––––––––––––––

Number of tracks: 13
Official DR value: DR10

Samplerate: 44100 Hz
Channels: 2
Bits per sample: 16
Bitrate: 567 kbps
Codec: FLAC
================================================================================


St. Jacob’s Kammarkör & Gary Graden - Et lux perpetua (2017)


Thanks to the Original customer.