Subcategories

Etna - Etna (1975) [2010, Belle 101666]

Posted By: v3122
Etna - Etna (1975) [2010, Belle 101666]

Etna - Etna (1975)
EAC Rip | Flac(Image) + Cue + Log & iPod M4A(Tracks) & MP3 CBR 320Kbps
Progressive / Jazz-Rock | ~ 283 or 285 or 104 Mb | Covers(300dpi, Jpg) Included
2010 | Belle 101666 | SHM-CD

Etna were a band from Sicily who began with the name Flea In The Honey before shortening to Flea, then finally changing to Etna. They released an album under each moniker and each is a very different animal. The first was influenced by British hard rock and not very original nor beloved by progressive music fans. The second album as the band Flea was a huge jump in quality and moved firmly into RPI territory while still paying homage to hard guitar rock. Its long jamming suite is quite a monster treat for guitar lovers. Their third release as Etna was a complete change in style and prove the musicians capable artistic chameleons able to go in two different yet believable directions.

"This time they recorded a powerful instrumental fusion album fronted by guitar and electric piano, resembling Mahavishnu Orchestra or the Spanish group Iceberg." ~ Scented Garden ~

In many ways Etna is similar to other 70s stock jazz-rock and one can draw comparisons to Bella Band, Arti Mestieri, or Esagono. But just like many of these other groups, continued listening reveals depth and personality not obvious on the initial plays. All of the basics are top notch: fantastic drumming and bass guitar interplay, with occasionally fiery electric guitar solos in rock and jazz veins. There is great control and tightness but in this case it is not a dry, soulless ride. Moving away from jazz rock autopilot which many prog listeners become bored with, there is great warmth brought to Etna via interesting songs, acoustic piano, electric piano, clarinet, and even mandolin. There seems to be a conscious attempt to keep things interesting, to keep the sound from falling into predictable patterns and repetitions. "Across the Indian Ocean" is a great example with some seriously daring, spirited twists and turns in the groove. "French Picadores" is another great example of turning "jazz rock" on its head–-it's a slow, dreamy wisp of clarinet melody over a finger-picked acoustic guitar. A bit of the old Flea guitar sound breaks through on "Sentimental Lewdness" but the growl is tempered here with uplifting piano runs. Beautiful piano and mandolin are meshed together in the closer "Barbarian Serenade," which sums up the album's attempt to present jazz rock in a more emotionally appealing package. Its lovely textures build into a hypnotic listening experience. While not a masterpiece and while there are some sections that lag a bit, Etna by and large have delivered an excellent set. It's really too bad they didn't didn't stay together, this was a good band.

Fans of instrumental jazz-rock need to make the effort to find this little-known gem of the genre–-it is my feeling many of you will be pleasantly surprised by the quality and the fun level of Etna. The delivered on the 2nd Flea album and they do so again here in a completely different style.

by Finnforest, progarchives
Etna - Etna (1975) [2010, Belle 101666]

Having the distinction of releasing three albums under three different names but without changing their personnel, this quartet from Sicily includes the brothers Agostino and Antonio Marangolo (drums and keyboards, respectively), their cousin Carlo Pennisi on guitar, and Elio Volpini on bass and sax. Based in Rome, they played under the name FLEA ON THE HONEY and then FLEA, having released two good albums ("Flea on the Honey" in 1971 and "Topi o Uomini" in 1972) in the hard progressive rock vein. Following the release of "Topi o Uomini," bassist Elio Volpini left the band to join his keyboard-playing brother Enzi in L'UOVO DI COLOMBO. He was replaced in FLEA briefly by Fabio Pignatelli, who later left to join CHERRY FIVE and GOBLIN. FLEA then broke up for a short time.

In 1975 the original four members reunited and changed their name to ETNA. Their only eponymous album represents a major shift in musical style to Jazz Rock. The style emphasizes melodic jazz rock, similar to NOVA and IL BARICENTRO, as opposed to the lightning fast style of some of the Fusion bands of the day.

The group then broke up for the last time. Elio Volpini played with many musicians on stage and in the studio. Agostino Marangolo joined GOBLIN and was later involved in NEW PERIGEO and later in the new version of NAPOLI CENTRALE. Antonio Marangalo had a successful career as a session musician and released a solo album "Duo" in 1987. Carlo Pennisi played briefly in LIBRA, MEDITERRANEO, GOBLIN, and NEW PERIGEO. The Marangolo brothers and cousin Carlo Pennisi played together again on Agostino's 2001 solo album "Day By Day," which is supposed to be similar to WEATHER REPORT in style.

~ progarchives
Tracklist:

01. Beneath the geyser (3:56)
02. South East wind (6:10)
03. Across the Indian Ocean (5:36)
04. French picadores (4:26)
05. Golden idol (8:59)
06. Sentimental lewdness (6:42)
07. Barbarian serenade (5:14)

Musicians:

- Agostino Marangolo / drums, percussion
- Antonio Marangolo / keyboards, clarinet
- Carlo Pennisi / guitar, mandoline
- Elio Volpini / bass, double bass

Exact Audio Copy V1.0 beta 3 from 29. August 2011

EAC extraction logfile from 25. December 2012, 21:14

Etna / Etna

Used drive : ATAPI iHAS324 Y Adapter: 4 ID: 0

Read mode : Secure
Utilize accurate stream : Yes
Defeat audio cache : Yes
Make use of C2 pointers : No

Read offset correction : 48
Overread into Lead-In and Lead-Out : No
Fill up missing offset samples with silence : Yes
Delete leading and trailing silent blocks : No
Null samples used in CRC calculations : Yes
Used interface : Native Win32 interface for Win NT & 2000
Gap handling : Appended to previous track

Used output format : User Defined Encoder
Selected bitrate : 896 kBit/s
Quality : High
Add ID3 tag : No
Command line compressor : C:\Program Files\Exact Audio Copy\flac.exe
Additional command line options : -8 -V -T "ARTIST=%artist%" -T "TITLE=%title%" -T "ALBUM=%albumtitle%" -T "DATE=%year%" -T "TRACKNUMBER=%tracknr%" -T "GENRE=%genre%" -T "PERFORMER=%albuminterpret%" -T "COMPOSER=%composer%" %haslyrics%–tag-from-file=LYRICS="%lyricsfile%"%haslyrics% -T "ALBUMARTIST=%albumartist%" -T "DISCNUMBER=%cdnumber%" -T "TOTALDISCS=%totalcds%" -T "TOTALTRACKS=%numtracks%" -T "COMMENT=%comment%" %source% -o %dest%


TOC of the extracted CD

Track | Start | Length | Start sector | End sector
––––––––––––––––––––––––––––-
1 | 0:00.00 | 3:56.00 | 0 | 17699
2 | 3:56.00 | 6:10.73 | 17700 | 45522
3 | 10:06.73 | 5:36.17 | 45523 | 70739
4 | 15:43.15 | 4:26.17 | 70740 | 90706
5 | 20:09.32 | 8:59.45 | 90707 | 131176
6 | 29:09.02 | 6:42.56 | 131177 | 161382
7 | 35:51.58 | 5:14.20 | 161383 | 184952


Track 1

Filename C:\EAC\01 - Beneath The Geyser.wav

Pre-gap length 0:00:02.00

Peak level 100.0 %
Extraction speed 2.3 X
Track quality 100.0 %
Test CRC A1321EBF
Copy CRC A1321EBF
Accurately ripped (confidence 1) [E26592CF] (AR v1)
Copy OK

Track 2

Filename C:\EAC\02 - South East Wind.wav

Peak level 100.0 %
Extraction speed 2.5 X
Track quality 99.9 %
Test CRC ECA734EB
Copy CRC ECA734EB
Accurately ripped (confidence 1) [6B68F7E7] (AR v1)
Copy OK

Track 3

Filename C:\EAC\03 - Across The Indian Ocean.wav

Peak level 100.0 %
Extraction speed 3.0 X
Track quality 100.0 %
Test CRC AC32F6C0
Copy CRC AC32F6C0
Accurately ripped (confidence 1) [8035D66F] (AR v1)
Copy OK

Track 4

Filename C:\EAC\04 - French Picadores.wav

Peak level 100.0 %
Extraction speed 2.9 X
Track quality 99.9 %
Test CRC D48AF314
Copy CRC D48AF314
Accurately ripped (confidence 1) [6496CB3C] (AR v1)
Copy OK

Track 5

Filename C:\EAC\05 - Golden Idol.wav

Peak level 100.0 %
Extraction speed 3.8 X
Track quality 100.0 %
Test CRC 80E6C307
Copy CRC 80E6C307
Accurately ripped (confidence 1) [BE3BCDA9] (AR v1)
Copy OK

Track 6

Filename C:\EAC\06 - Sentimental Lewdness.wav

Peak level 100.0 %
Extraction speed 4.0 X
Track quality 100.0 %
Test CRC 652F4668
Copy CRC 652F4668
Accurately ripped (confidence 1) [F93C4BCF] (AR v1)
Copy OK

Track 7

Filename C:\EAC\07 - Barbarian Serenade.wav

Peak level 100.0 %
Extraction speed 4.2 X
Track quality 100.0 %
Test CRC AA3EF5B8
Copy CRC AA3EF5B8
Accurately ripped (confidence 1) [4F97CC3F] (AR v1)
Copy OK


All tracks accurately ripped

No errors occurred

End of status report

foobar2000 1.1.18 / Dynamic Range Meter 1.1.1
log date: 2013-01-23 11:15:57

––––––––––––––––––––––––––––––––––––––––
Analyzed: Etna / Etna
––––––––––––––––––––––––––––––––––––––––

DR Peak RMS Duration Track
––––––––––––––––––––––––––––––––––––––––
DR9 0.00 dB -10.65 dB 3:56 01-Beneath The Geyser
DR10 0.00 dB -11.29 dB 6:11 02-South East Wind
DR9 0.00 dB -11.58 dB 5:36 03-Across The Indian Ocean
DR10 0.00 dB -12.72 dB 4:26 04-French Picadores
DR10 0.00 dB -12.28 dB 9:00 05-Golden Idol
DR9 0.00 dB -11.67 dB 6:43 06-Sentimental Lewdness
DR9 0.00 dB -11.82 dB 5:14 07-Barbarian Serenade
––––––––––––––––––––––––––––––––––––––––

Number of tracks: 7
Official DR value: DR10

Samplerate: 44100 Hz
Channels: 2
Bits per sample: 16
Bitrate: 934 kbps
Codec: FLAC

Etna - Etna (1975) [2010, Belle 101666]

All thanks go to kotetsu29292929

Download Etna - Etna (1975):