Tags
Language
Tags

Eugen Jochum, Chor und Orchester Der Deutschen Oper Berlin - Carl Orff: Carmina Burana, Catulli Carmina (1989)

Posted By: ArlegZ
Eugen Jochum, Chor und Orchester Der Deutschen Oper Berlin - Carl Orff: Carmina Burana, Catulli Carmina (1989)

Eugen Jochum, Chor und Orchester Der Deutschen Oper Berlin - Carl Orff: Carmina Burana, Catulli Carmina (1989)
EAC | FLAC | Image (Cue & Log) ~ 493 Mb | Total time: 77:00 | Scans included
Classical | Label: Deutsche Grammophon | 427 878-2 | Recorded: 1967

this recording of Carl Orff's Carmina Burana was authorized by the composer himself. It follows, therefore, that the present recording met with the high requirements of the composer himself and so represents an unusual collector's item. Orff intended not just to copy the medieval lyrics but to express the mood of that era. His highly rhythmic compositional style reflects the archaic character of the vocal line. The listener experiences not only the vital primordial pulse of the music in this thrilling interpretation but also the mystery of Fate through the tender lyrical passages. Orff's homage to wine, women and song of the Middle Ages, closely bound up with spring and love, is supported by balanced and precise sound technology. The listener is spirited away to the musical world of Carmina Burana by this recording.
–Hans Hirsch

Performer:
Carmina Burana:
Gundula Janowitz, soprano
Gerhard Stolze, tenor
Dietrich Fischer-Dieskau, bariton
Schöneberger Sängerknaben
Chor und Orchester der Deutschen Oper Berlin
Eugen Jochum, conductor

Catulli Carmina:
Arleen Auger, soprano
Wieslaw Ochman, tenor
Chor der Deutschen Oper Berlin
4 Klaviere und Schlagzeug
Eugen Jochum, conductor

Track List:
CD1:
Carmina Burana
01. Fortuna imperatrix mundi: O Fortuna
02. Fortuna imperatrix mundi: Fortune plango vulnera
03. I. Primo vere: Veris leta facies
04. I. Primo vere: Omnia Sol temperat
05. I. Primo vere: Ecce gratum
06. Uf dem anger: Tanz
07. Uf dem anger: Floret silva nobilis
08. Uf dem anger: Chramer, gip die varwe mir
09. Uf dem anger: Reie / Swaz hie gat umbe / Chume, chum, geselle min! / Swaz hie gat umbe
10. Uf dem anger: Were diu werlt alle min
11. II. In taberna: Estuans interius
12. II. In taberna: Olim lacus colueram
13. II. In taberna: Ego sum abbas
14. II. In taberna: In taberna quando sumus
15. III. Cour d'amours: Amor volat undique
16. III. Cour d'amours: Dies, nox et omnia
17. III. Cour d'amours: Stetit puella
18. III. Cour d'amours: Circa mea pectora
19. III. Cour d'amours: Si puer cum puellula
20. III. Cour d'amours: Veni, veni, venias
21. III. Cour d'amours: In trutina
22. III. Cour d'amours: Tempus est iocundum
23. III. Cour d'amours: Dulcissime
24. Blanziflor et Helena: Ave, formosissima
25. Carmina Burana: Fortuna imperatrix mundi: O Fortuna
CD2:
Catulli Carmina:
01. Chorus: Eis Aiona!
02. Actus I: Odi et amo
03. Actus II: Jucundum mea vita
04. Actus III: Odi et amo / Exodium: Chorus: Eis aiona


Exact Audio Copy V1.5 from 20. February 2020

EAC extraction logfile from 26. September 2020, 11:36

Carl Orff / Carmina Burana / Catulli Carmina

Used drive : TSSTcorpDVDWBD SE-406AB Adapter: 1 ID: 1

Read mode : Secure
Utilize accurate stream : Yes
Defeat audio cache : Yes
Make use of C2 pointers : No

Read offset correction : 6
Overread into Lead-In and Lead-Out : No
Fill up missing offset samples with silence : Yes
Delete leading and trailing silent blocks : No
Null samples used in CRC calculations : Yes
Used interface : Native Win32 interface for Win NT & 2000

Used output format : User Defined Encoder
Selected bitrate : 896 kBit/s
Quality : High
Add ID3 tag : No
Command line compressor : C:\Program Files (x86)\Exact Audio Copy\FLAC\FLAC.EXE
Additional command line options : -6 -V -T "ARTIST=%artist%" -T "TITLE=%title%" -T "ALBUM=%albumtitle%" -T "DATE=%year%" -T "TRACKNUMBER=%tracknr%" -T "GENRE=%genre%" -T "COMMENT=%comment%" -T "BAND=%albuminterpret%" -T "ALBUMARTIST=%albuminterpret%" -T "COMPOSER=%composer%" %haslyrics%–tag-from-file=LYRICS="%lyricsfile%"%haslyrics% -T "DISCNUMBER=%cdnumber%" -T "TOTALDISCS=%totalcds%" -T "TOTALTRACKS=%numtracks%" %hascover%–picture="%coverfile%"%hascover% %source% -o %dest%


TOC of the extracted CD

Track | Start | Length | Start sector | End sector
––––––––––––––––––––––––––––-
1 | 0:00.32 | 2:36.60 | 32 | 11791
2 | 2:37.17 | 2:39.48 | 11792 | 23764
3 | 5:16.65 | 3:27.72 | 23765 | 39361
4 | 8:44.62 | 2:03.45 | 39362 | 48631
5 | 10:48.32 | 2:39.23 | 48632 | 60579
6 | 13:27.55 | 1:42.55 | 60580 | 68284
7 | 15:10.35 | 3:01.50 | 68285 | 81909
8 | 18:12.10 | 2:59.10 | 81910 | 95344
9 | 21:11.20 | 3:59.10 | 95345 | 113279
10 | 25:10.30 | 0:56.40 | 113280 | 117519
11 | 26:06.70 | 2:11.65 | 117520 | 127409
12 | 28:18.60 | 3:24.37 | 127410 | 142746
13 | 31:43.22 | 1:31.20 | 142747 | 149591
14 | 33:14.42 | 3:09.15 | 149592 | 163781
15 | 36:23.57 | 3:00.28 | 163782 | 177309
16 | 39:24.10 | 1:58.30 | 177310 | 186189
17 | 41:22.40 | 1:49.65 | 186190 | 194429
18 | 43:12.30 | 2:10.22 | 194430 | 204201
19 | 45:22.52 | 0:58.15 | 204202 | 208566
20 | 46:20.67 | 1:00.18 | 208567 | 213084
21 | 47:21.10 | 1:53.30 | 213085 | 221589
22 | 49:14.40 | 2:09.35 | 221590 | 231299
23 | 51:24.00 | 0:34.32 | 231300 | 233881
24 | 51:58.32 | 1:38.30 | 233882 | 241261
25 | 53:36.62 | 2:32.35 | 241262 | 252696


Range status and errors

Selected range

Filename I:\Rips\Orff - Carmina Burana, Catulli Carmina - Jochum\CD1\Carl Orff - Carmina Burana , Catulli Carmina (CD1).wav

Peak level 99.9 %
Extraction speed 1.9 X
Range quality 100.0 %
Test CRC 9C8E0B12
Copy CRC 9C8E0B12
Copy OK

No errors occurred


AccurateRip summary

Track 1 accurately ripped (confidence 58) [C2A758C2] (AR v2)
Track 2 accurately ripped (confidence 59) [950E42E1] (AR v2)
Track 3 accurately ripped (confidence 59) [54D53B9E] (AR v2)
Track 4 accurately ripped (confidence 59) [A2537F8A] (AR v2)
Track 5 accurately ripped (confidence 59) [93F45466] (AR v2)
Track 6 accurately ripped (confidence 59) [8AEA5C99] (AR v2)
Track 7 accurately ripped (confidence 58) [6CCB59EA] (AR v2)
Track 8 accurately ripped (confidence 57) [F5737A40] (AR v2)
Track 9 accurately ripped (confidence 58) [DAEE9D1B] (AR v2)
Track 10 accurately ripped (confidence 59) [13A3BCD8] (AR v2)
Track 11 accurately ripped (confidence 59) [31B5B8E9] (AR v2)
Track 12 accurately ripped (confidence 59) [F70249BB] (AR v2)
Track 13 accurately ripped (confidence 59) [F8DF8CD1] (AR v2)
Track 14 accurately ripped (confidence 58) [7D53A5BE] (AR v2)
Track 15 accurately ripped (confidence 57) [1EB1F280] (AR v2)
Track 16 accurately ripped (confidence 58) [D6D23006] (AR v2)
Track 17 accurately ripped (confidence 58) [04974DFE] (AR v2)
Track 18 accurately ripped (confidence 59) [55D2D79F] (AR v2)
Track 19 accurately ripped (confidence 58) [C0B5C9B7] (AR v2)
Track 20 accurately ripped (confidence 57) [1EF3C75A] (AR v2)
Track 21 accurately ripped (confidence 58) [2265AB57] (AR v2)
Track 22 accurately ripped (confidence 58) [797795D3] (AR v2)
Track 23 accurately ripped (confidence 58) [7C6D55E6] (AR v2)
Track 24 accurately ripped (confidence 58) [FA0B7FF1] (AR v2)
Track 25 accurately ripped (confidence 58) [E3C15517] (AR v2)

All tracks accurately ripped

End of status report

–– CUETools DB Plugin V2.1.6

[CTDB TOCID: P4OaRU5zun8j5pTgKrKauLwk.Ns-] found
Submit result: P4OaRU5zun8j5pTgKrKauLwk.Ns- has been confirmed
Track | CTDB Status
1 | (667/678) Accurately ripped
2 | (669/678) Accurately ripped
3 | (669/678) Accurately ripped
4 | (673/678) Accurately ripped
5 | (670/678) Accurately ripped
6 | (671/678) Accurately ripped
7 | (672/678) Accurately ripped
8 | (669/678) Accurately ripped
9 | (672/678) Accurately ripped
10 | (672/678) Accurately ripped
11 | (670/678) Accurately ripped
12 | (670/678) Accurately ripped
13 | (671/678) Accurately ripped
14 | (672/678) Accurately ripped
15 | (668/678) Accurately ripped
16 | (673/678) Accurately ripped
17 | (673/678) Accurately ripped
18 | (671/678) Accurately ripped
19 | (672/678) Accurately ripped
20 | (671/678) Accurately ripped
21 | (667/678) Accurately ripped
22 | (662/678) Accurately ripped
23 | (669/678) Accurately ripped
24 | (668/678) Accurately ripped
25 | (666/678) Accurately ripped


==== Log checksum 2F2D25FFB04B7B52F1A01A94D5DDA194415A0B7EB9247F3AB16537591B23D51A ====


Exact Audio Copy V1.5 from 20. February 2020

EAC extraction logfile from 26. September 2020, 12:36

Carl Orff / Carmina Burana / Catulli Carmina

Used drive : TSSTcorpDVDWBD SE-406AB Adapter: 1 ID: 1

Read mode : Secure
Utilize accurate stream : Yes
Defeat audio cache : Yes
Make use of C2 pointers : No

Read offset correction : 6
Overread into Lead-In and Lead-Out : No
Fill up missing offset samples with silence : Yes
Delete leading and trailing silent blocks : No
Null samples used in CRC calculations : Yes
Used interface : Native Win32 interface for Win NT & 2000

Used output format : User Defined Encoder
Selected bitrate : 896 kBit/s
Quality : High
Add ID3 tag : No
Command line compressor : C:\Program Files (x86)\Exact Audio Copy\FLAC\FLAC.EXE
Additional command line options : -6 -V -T "ARTIST=%artist%" -T "TITLE=%title%" -T "ALBUM=%albumtitle%" -T "DATE=%year%" -T "TRACKNUMBER=%tracknr%" -T "GENRE=%genre%" -T "COMMENT=%comment%" -T "BAND=%albuminterpret%" -T "ALBUMARTIST=%albuminterpret%" -T "COMPOSER=%composer%" %haslyrics%–tag-from-file=LYRICS="%lyricsfile%"%haslyrics% -T "DISCNUMBER=%cdnumber%" -T "TOTALDISCS=%totalcds%" -T "TOTALTRACKS=%numtracks%" %hascover%–picture="%coverfile%"%hascover% %source% -o %dest%


TOC of the extracted CD

Track | Start | Length | Start sector | End sector
––––––––––––––––––––––––––––-
1 | 0:00.33 | 13:24.25 | 33 | 60357
2 | 13:24.58 | 7:57.62 | 60358 | 96194
3 | 21:22.45 | 7:01.08 | 96195 | 127777
4 | 28:23.53 | 8:29.02 | 127778 | 165954


Range status and errors

Selected range

Filename I:\Rips\Orff - Carmina Burana, Catulli Carmina - Jochum\CD2\Carl Orff - Carmina Burana , Catulli Carmina (CD2).wav

Peak level 91.2 %
Extraction speed 1.7 X
Range quality 100.0 %
Test CRC 864C26AE
Copy CRC 864C26AE
Copy OK

No errors occurred


AccurateRip summary

Track 1 accurately ripped (confidence 37) [0176A5AA] (AR v2)
Track 2 accurately ripped (confidence 37) [511C815F] (AR v2)
Track 3 accurately ripped (confidence 35) [52918F2F] (AR v2)
Track 4 accurately ripped (confidence 37) [84F1165E] (AR v2)

All tracks accurately ripped

End of status report

–– CUETools DB Plugin V2.1.6

[CTDB TOCID: Q6tkZwFoLIt6fTBrnRCPCYjNyfI-] found
Submit result: Q6tkZwFoLIt6fTBrnRCPCYjNyfI- has been confirmed
Track | CTDB Status
1 | (81/83) Accurately ripped
2 | (81/83) Accurately ripped
3 | (82/83) Accurately ripped
4 | (83/83) Accurately ripped


==== Log checksum A1C552C3855504CEC9A5B5F527B12B6F1AC8F010B6304EA471D977F38511E5CD ====

Eugen Jochum, Chor und Orchester Der Deutschen Oper Berlin - Carl Orff: Carmina Burana, Catulli Carmina (1989)

Thanks to the original releaser