Subcategories

Stephen Stills & Judy Collins - Everybody Knows (2017)

Posted By: SERTiL
Stephen Stills & Judy Collins - Everybody Knows (2017)

Stephen Stills & Judy Collins - Everybody Knows
EAC Rip | FLAC (tracks)+cue, log, m3u, front cover | 40:45 min | 271 MB
Label: Cleopatra Records – CLO 0691 | Tracks: 10 | Rls.date: 2017
Folk Rock, Singer-Songwriter

2017 release. Together at last! Two folk legends of Laurel Canyon's countercultural music scene join forces on this gorgeous album of all new recordings! Features captivating versions of classic tunes by fellow folk icons Bob Dylan and Leonard Cohen plus a few of their own compositions!

TRACKLIST
01. Handle with Care 03:43
02. So Begins the Task 03:35
03. River of Gold 03:36
04. Judy 04:03
05. Everybody Knows 05:26
06. Houses 04:36
07. Reason to Believe 02:57
08. Girl from the North Country 03:26
09. Who Knows Where the Time Goes 05:40
10. Questions 03:44

Exact Audio Copy V1.0 beta 4 from 7. December 2014

EAC extraction logfile from 22. October 2017, 19:27

Stills & Collins / Everybody Knows

Used drive : PIONEER DVD-RW DVR-116D Adapter: 1 ID: 0

Read mode : Secure
Utilize accurate stream : Yes
Defeat audio cache : Yes
Make use of C2 pointers : No

Read offset correction : 96
Overread into Lead-In and Lead-Out : No
Fill up missing offset samples with silence : Yes
Delete leading and trailing silent blocks : No
Null samples used in CRC calculations : Yes
Used interface : Native Win32 interface for Win NT & 2000
Gap handling : Appended to previous track

Used output format : User Defined Encoder
Selected bitrate : 1024 kBit/s
Quality : High
Add ID3 tag : No
Command line compressor : C:\Program Files (x86)\Exact Audio Copy\Flac\flac.exe
Additional command line options : -8 -V -T "ARTIST=%artist%" -T "TITLE=%title%" -T "ALBUM=%albumtitle%" -T "DATE=%year%" -T "TRACKNUMBER=%tracknr%" -T "GENRE=%genre%" -T "PERFORMER=%albuminterpret%" -T "COMPOSER=%composer%" %haslyrics%–tag-from-file=LYRICS="%lyricsfile%"%haslyrics% -T "ALBUMARTIST=%albumartist%" -T "DISCNUMBER=%cdnumber%" -T "TOTALDISCS=%totalcds%" -T "TOTALTRACKS=%numtracks%" -T "COMMENT=%comment%" %source% -o %dest%


TOC of the extracted CD

Track | Start | Length | Start sector | End sector
––––––––––––––––––––––––––––-
1 | 0:00.00 | 3:43.01 | 0 | 16725
2 | 3:43.01 | 3:35.57 | 16726 | 32907
3 | 7:18.58 | 3:36.60 | 32908 | 49167
4 | 10:55.43 | 4:02.74 | 49168 | 67391
5 | 14:58.42 | 5:26.51 | 67392 | 91892
6 | 20:25.18 | 4:36.58 | 91893 | 112650
7 | 25:02.01 | 2:57.08 | 112651 | 125933
8 | 27:59.09 | 3:26.14 | 125934 | 141397
9 | 31:25.23 | 5:40.49 | 141398 | 166946
10 | 37:05.72 | 3:44.58 | 166947 | 183804


Track 1

Filename C:\new flac rips\Stills & Collins - 2017 - Everybody Knows (CLO 0691)\01 Handle with Care.wav

Pre-gap length 0:00:02.00

Peak level 97.3 %
Extraction speed 4.1 X
Track quality 100.0 %
Test CRC 88C555E9
Copy CRC 88C555E9
Accurately ripped (confidence 2) [CE0BB208] (AR v2)
Copy OK

Track 2

Filename C:\new flac rips\Stills & Collins - 2017 - Everybody Knows (CLO 0691)\02 So Begins the Task.wav

Peak level 96.7 %
Extraction speed 3.9 X
Track quality 99.9 %
Test CRC 62DEC6D9
Copy CRC 62DEC6D9
Accurately ripped (confidence 2) [7B706FE1] (AR v2)
Copy OK

Track 3

Filename C:\new flac rips\Stills & Collins - 2017 - Everybody Knows (CLO 0691)\03 River of Gold.wav

Peak level 97.1 %
Extraction speed 4.2 X
Track quality 99.9 %
Test CRC 540E1AF4
Copy CRC 540E1AF4
Accurately ripped (confidence 2) [FC1A7B6B] (AR v2)
Copy OK

Track 4

Filename C:\new flac rips\Stills & Collins - 2017 - Everybody Knows (CLO 0691)\04 Judy.wav

Peak level 98.6 %
Extraction speed 4.6 X
Track quality 99.9 %
Test CRC 946CF3C8
Copy CRC 946CF3C8
Accurately ripped (confidence 2) [4517974D] (AR v2)
Copy OK

Track 5

Filename C:\new flac rips\Stills & Collins - 2017 - Everybody Knows (CLO 0691)\05 Everybody Knows.wav

Peak level 98.0 %
Extraction speed 5.3 X
Track quality 99.9 %
Test CRC 2B848D4A
Copy CRC 2B848D4A
Accurately ripped (confidence 2) [43CE5FD5] (AR v2)
Copy OK

Track 6

Filename C:\new flac rips\Stills & Collins - 2017 - Everybody Knows (CLO 0691)\06 Houses.wav

Peak level 100.0 %
Extraction speed 6.1 X
Track quality 100.0 %
Test CRC 82018A0D
Copy CRC 82018A0D
Accurately ripped (confidence 2) [8AA2DDFF] (AR v2)
Copy OK

Track 7

Filename C:\new flac rips\Stills & Collins - 2017 - Everybody Knows (CLO 0691)\07 Reason to Believe.wav

Peak level 98.8 %
Extraction speed 5.9 X
Track quality 100.0 %
Test CRC 6597E692
Copy CRC 6597E692
Accurately ripped (confidence 2) [9EBAEFA9] (AR v2)
Copy OK

Track 8

Filename C:\new flac rips\Stills & Collins - 2017 - Everybody Knows (CLO 0691)\08 Girl from the North Country.wav

Peak level 95.7 %
Extraction speed 5.5 X
Track quality 99.9 %
Test CRC 48877755
Copy CRC 48877755
Accurately ripped (confidence 2) [371CAD1D] (AR v2)
Copy OK

Track 9

Filename C:\new flac rips\Stills & Collins - 2017 - Everybody Knows (CLO 0691)\09 Who Knows Where the Time Goes.wav

Peak level 96.2 %
Extraction speed 6.8 X
Track quality 100.0 %
Test CRC B644C355
Copy CRC B644C355
Accurately ripped (confidence 2) [C08B0342] (AR v2)
Copy OK

Track 10

Filename C:\new flac rips\Stills & Collins - 2017 - Everybody Knows (CLO 0691)\10 Questions.wav

Peak level 99.1 %
Extraction speed 5.9 X
Track quality 99.9 %
Test CRC 059B951D
Copy CRC 059B951D
Accurately ripped (confidence 2) [D5A70BD8] (AR v2)
Copy OK


All tracks accurately ripped

No errors occurred

End of status report

–– CUETools DB Plugin V2.1.4

[CTDB TOCID: T5.T.dPYd7FyT8lr7ypGf.OZHyk-] found
Submit result: T5.T.dPYd7FyT8lr7ypGf.OZHyk- has been confirmed
Track | CTDB Status
1 | (22/22) Accurately ripped
2 | (22/22) Accurately ripped
3 | (21/22) Accurately ripped
4 | (22/22) Accurately ripped
5 | (22/22) Accurately ripped
6 | (22/22) Accurately ripped
7 | (22/22) Accurately ripped
8 | (22/22) Accurately ripped
9 | (22/22) Accurately ripped
10 | (22/22) Accurately ripped


==== Log checksum 8C0565C50946924AF0B7338F3EF0BF5AC702665DF1231A1F6DAFA1B9206BB8A6 ====


Thanks to the Original customer.