Subcategories

Evgeny Svetlanov, USSR Symphony Orchestra - Mily Balakirev: 2 Symphonies, Symphonic Poems, Overtures (1997)

Posted By: ArlegZ
Evgeny Svetlanov, USSR Symphony Orchestra - Mily Balakirev: 2 Symphonies, Symphonic Poems, Overtures (1997)

Evgeny Svetlanov, USSR Symphony Orchestra - Mily Balakirev: 2 Symphonies, Symphonic Poems, Overtures (1997)
EAC | FLAC | Image (Cue & Log) ~ 708 Mb | Total time: 75:56+77:14 | Scans included
Classical | Label: BMG-Melodiya | 74321 49608 2 | Recorded: 1974, 1978, 1984, 1985, 1987

Couplings of the two Balakirev symphonies are not uncommon. Naxos and Hyperion are examples although no doubt there are others. This set, which in terms of musical playing time is amongst the most generous in the BMG-Melodiya series, includes both symphonies and six other works, three tone poems and three overtures. Balakirev's dedication to folk music and the exotic orient is well known. It puts in an appearance to greater or lesser extents in all these works.

Performer:
USSR Symphony Orchestra
Evgeny Svetlanov, conductor

Track List:
CD1:
Symphony No.1 in C Major
01. I. Largo. Allegro vivo
02. II. Scherzo. Vivo
03. III. Andante
04. IV. Finale. Allegro moderato
05. Overture on Themes of Three Russian Songs
06. Russia, symphonic poem
07. Overture on a Spanish March Theme
CD2:
Symphony No.2 in D Minor
01. I. Allegro ma non troppo
02. II. Scherzo alla Cosacca. Allegro non troppo, ma con fuoco ed energico
03. III. Romanza, Andante
04. IV. Finale. Tempo di Polacca
05. Tamara
06. In Bohemia
07. Islamey (orch Lyapunov)


Exact Audio Copy V1.3 from 2. September 2016

EAC extraction logfile from 2. March 2020, 23:36

Evgeny Svetlanov & Orchestre symphonique de l'URSS / Mily Balakirev - 2 Symphonies, Symphonic Poems & Overtures (CD1)

Used drive : PLEXTOR DVDR PX-891SA Adapter: 1 ID: 1

Read mode : Secure
Utilize accurate stream : Yes
Defeat audio cache : No
Make use of C2 pointers : No

Combined read/write offset correction : 0
Overread into Lead-In and Lead-Out : No
Fill up missing offset samples with silence : Yes
Delete leading and trailing silent blocks : No
Null samples used in CRC calculations : Yes
Used interface : Native Win32 interface for Win NT & 2000

Used output format : Internal WAV Routines
Sample format : 44.100 Hz; 16 Bit; Stereo


TOC of the extracted CD

Track | Start | Length | Start sector | End sector
––––––––––––––––––––––––––––-
1 | 0:00.00 | 11:41.55 | 0 | 52629
2 | 11:41.55 | 6:53.25 | 52630 | 83629
3 | 18:35.05 | 12:59.70 | 83630 | 142124
4 | 31:35.00 | 8:39.25 | 142125 | 181074
5 | 40:14.25 | 8:29.02 | 181075 | 219251
6 | 48:43.27 | 13:49.08 | 219252 | 281434
7 | 62:32.35 | 13:21.02 | 281435 | 341511


Range status and errors

Selected range

Filename D:\Andrea\DOWNLOADS_AUDIO\Evgeny Svetlanov & Orchestre symphonique de l'URSS - Mily Balakirev - 2 Symphonies, Symphonic Poems & Overtures (CD1).wav

Peak level 97.9 %
Extraction speed 5.9 X
Range quality 100.0 %
Copy CRC 7F228C91
Copy OK

No errors occurred

End of status report

–– CUETools DB Plugin V2.1.6

[CTDB TOCID: gDRIImHe_BSDvnA8rjoNp3i4Nhc-] found
Submit result: gDRIImHe_BSDvnA8rjoNp3i4Nhc- has been confirmed
Track | CTDB Status
1 | (14/15) Accurately ripped
2 | (15/15) Accurately ripped
3 | (15/15) Accurately ripped
4 | (15/15) Accurately ripped
5 | (15/15) Accurately ripped
6 | (15/15) Accurately ripped
7 | (15/15) Accurately ripped


Exact Audio Copy V1.3 from 2. September 2016

EAC extraction logfile from 2. March 2020, 23:58

Evgeny Svetlanov & Orchestre symphonique de l'URSS / Mily Balakirev - 2 Symphonies, Symphonic Poems & Overtures (CD2)

Used drive : PLEXTOR DVDR PX-891SA Adapter: 1 ID: 1

Read mode : Secure
Utilize accurate stream : Yes
Defeat audio cache : No
Make use of C2 pointers : No

Combined read/write offset correction : 0
Overread into Lead-In and Lead-Out : No
Fill up missing offset samples with silence : Yes
Delete leading and trailing silent blocks : No
Null samples used in CRC calculations : Yes
Used interface : Native Win32 interface for Win NT & 2000

Used output format : Internal WAV Routines
Sample format : 44.100 Hz; 16 Bit; Stereo


TOC of the extracted CD

Track | Start | Length | Start sector | End sector
––––––––––––––––––––––––––––-
1 | 0:00.00 | 9:35.42 | 0 | 43166
2 | 9:35.42 | 7:48.10 | 43167 | 78276
3 | 17:23.52 | 9:48.48 | 78277 | 122424
4 | 27:12.25 | 8:32.15 | 122425 | 160839
5 | 35:44.40 | 21:18.40 | 160840 | 256729
6 | 57:03.05 | 12:08.45 | 256730 | 311374
7 | 69:11.50 | 8:00.40 | 311375 | 347414


Range status and errors

Selected range

Filename D:\Andrea\DOWNLOADS_AUDIO\Evgeny Svetlanov & Orchestre symphonique de l'URSS - Mily Balakirev - 2 Symphonies, Symphonic Poems & Overtures (CD2).wav

Peak level 94.8 %
Extraction speed 6.0 X
Range quality 100.0 %
Copy CRC DB6FF162
Copy OK

No errors occurred

End of status report

–– CUETools DB Plugin V2.1.6

[CTDB TOCID: NpA_Ce6Lst0m34vf7_lCAYHLK4I-] found
Submit result: NpA_Ce6Lst0m34vf7_lCAYHLK4I- has been confirmed
Track | CTDB Status
1 | (16/16) Accurately ripped
2 | (16/16) Accurately ripped
3 | (16/16) Accurately ripped
4 | (16/16) Accurately ripped
5 | (15/16) Accurately ripped
6 | (16/16) Accurately ripped
7 | (15/16) Accurately ripped

Evgeny Svetlanov, USSR Symphony Orchestra - Mily Balakirev: 2 Symphonies, Symphonic Poems, Overtures (1997)

Thanks to the original releaser