Subcategories

Foo Fighters - I'll Stick Around (Japan CD5) (1995) {Roswell/Capitol/Toshiba EMI Japan}

Posted By: TestTickles
Foo Fighters - I'll Stick Around (Japan CD5) (1995) {Roswell/Capitol/Toshiba EMI Japan}

Foo Fighters - I'll Stick Around (Japan CD5) (1995) {Roswell/Capitol/Toshiba EMI Japan}
EAC Rip | FLAC with CUE and LOG | scans | 121 mb
MP3 CBR 320 kbps | RAR | 44 mb
Genre: alternative rock, post-grunge

"I'll Stick Around" is from Foo Fighters' debut album released in 1995. While Foo Fighters are known as a band, their debut was completely performed by Dave Grohl and this was their third single but the first video made from the album. This Japanese CD5 features two non-LP tracks plus two live cuts. This was released by Roswell/Capitol/Toshiba EMI Japan.

Foo Fighters - I'll Stick Around (Japan CD5) (1995) {Roswell/Capitol/Toshiba EMI Japan}

1. I'll Stick Around (3:54)
2. How I Miss You (4:56)
3. Ozone (4:16)
4. For All The Cows (Live) (3:36)
5. Wattershed (Live) (2:14)

Exact Audio Copy V0.99 prebeta 4 from 23. January 2008

EAC extraction logfile from 15. August 2009, 07:30

Foo Fighters / I'll Stick Around (Japan CD5)

Used drive : PIONEER DVD-RW DVR-115D Adapter: 1 ID: 0

Read mode : Secure
Utilize accurate stream : Yes
Defeat audio cache : Yes
Make use of C2 pointers : No

Read offset correction : 48
Overread into Lead-In and Lead-Out : No
Fill up missing offset samples with silence : Yes
Delete leading and trailing silent blocks : No
Null samples used in CRC calculations : Yes
Used interface : Native Win32 interface for Win NT & 2000
Gap handling : Appended to previous track

Used output format : User Defined Encoder
Selected bitrate : 768 kBit/s
Quality : High
Add ID3 tag : No
Command line compressor : C:\Program Files\Exact Audio Copy\FLAC\FLAC.EXE
Additional command line options : -V -8 -T "artist=%a" -T "title=%t" -T "album=%g" -T "date=%y" -T "tracknumber=%n" -T "genre=%m" %s


TOC of the extracted CD

Track | Start | Length | Start sector | End sector
––––––––––––––––––––––––––––-
1 | 0:00.00 | 3:53.52 | 0 | 17526
2 | 3:53.52 | 4:56.28 | 17527 | 39754
3 | 8:50.05 | 4:17.67 | 39755 | 59096
4 | 13:07.72 | 3:36.38 | 59097 | 75334
5 | 16:44.35 | 2:14.60 | 75335 | 85444


Track 1

Filename C:\cuntfist\FLAC\Foo Fighters - I'll Stick Around (Japan CD5) (1995) [FLAC] {Roswell, Capitol, Toshiba EMI Japan}\01 - I'll Stick Around.wav

Pre-gap length 0:00:02.00

Peak level 100.0 %
Track quality 100.0 %
Test CRC B3C89FA2
Copy CRC B3C89FA2
Track not present in AccurateRip database
Copy OK

Track 2

Filename C:\cuntfist\FLAC\Foo Fighters - I'll Stick Around (Japan CD5) (1995) [FLAC] {Roswell, Capitol, Toshiba EMI Japan}\02 - How I Miss You.wav

Pre-gap length 0:00:00.13

Peak level 100.0 %
Track quality 100.0 %
Test CRC F7BB46B3
Copy CRC F7BB46B3
Track not present in AccurateRip database
Copy OK

Track 3

Filename C:\cuntfist\FLAC\Foo Fighters - I'll Stick Around (Japan CD5) (1995) [FLAC] {Roswell, Capitol, Toshiba EMI Japan}\03 - Ozone.wav

Pre-gap length 0:00:02.70

Peak level 97.7 %
Track quality 100.0 %
Test CRC 383C518A
Copy CRC 383C518A
Track not present in AccurateRip database
Copy OK

Track 4

Filename C:\cuntfist\FLAC\Foo Fighters - I'll Stick Around (Japan CD5) (1995) [FLAC] {Roswell, Capitol, Toshiba EMI Japan}\04 - For All Rhe Cows (Live).wav

Pre-gap length 0:00:01.66

Peak level 68.8 %
Track quality 99.9 %
Test CRC BF089CFF
Copy CRC BF089CFF
Track not present in AccurateRip database
Copy OK

Track 5

Filename C:\cuntfist\FLAC\Foo Fighters - I'll Stick Around (Japan CD5) (1995) [FLAC] {Roswell, Capitol, Toshiba EMI Japan}\05 - Wattershed (Live).wav

Pre-gap length 0:00:01.44

Peak level 68.8 %
Track quality 99.9 %
Test CRC 209FD268
Copy CRC 209FD268
Track not present in AccurateRip database
Copy OK


None of the tracks are present in the AccurateRip database

No errors occurred

End of status report


Foo Fighters - I'll Stick Around (Japan CD5) (1995) {Roswell/Capitol/Toshiba EMI Japan}


Thank you to the original uploader.