Tags
Language
Tags

Fabio Biondi, Europa Galante - Geminiani: Concerti grossi, Op. 3 (1997)

Posted By: ArlegZ
Fabio Biondi, Europa Galante - Geminiani: Concerti grossi, Op. 3 (1997)

Fabio Biondi, Europa Galante - Geminiani: Concerti grossi, Op. 3 (1997)
EAC | FLAC | Image (Cue & Log) ~ 317 Mb | Total time: 61:21 | Scans included
Classical | Label: Opus 111 | # OPS 30-172 | Recorded: 1996

After Handel, Geminiani was among the most prominent foreign musicians to settle in England during the first half of the 18th century. His most celebrated collection of concertos was published in 1732 as his Op. 3. Charles Burney rated them highly and it is easy to see why: they are beautifully crafted pieces modelled, to some extent, on those of his teacher, Corelli. But, in addition to the two violins and cello which form the typical concertino/solo group of the Corellian concerto grosso, Geminiani added a viola to make up a quartet. He was not quite the first to do this, but he was the first to integrate the solo and grosso elements with such finesse. These are notably expressive performances of the six concertos of Geminiani’s Op. 3. The programme also includes Geminiani’s own concerto arrangement of Corelli’s Violin Sonata, La follia, the best-known work from his set of 12, published in 1700.
–Nicholas Anderson

Performer:
Europa Galante
Fabio Biondi, violino solo e direttore

Track List:
01. Concerto Grosso, for 2 violins, strings & continuo No.12 in D minor ("La Follia"; after Corelli Op. 5/12)
Concerti Grossi (6), for 2 violins, viola, cello, strings & continuo, Op. 3
Concerto grosso No. 1 in re maggiore
02. I. Adagio
03. II. Allegro
04. III. Adagio
05. IV. Allegro
Concerto grosso No. 2 in sol mineur
06. I. Largo e staccato
07. II. Allegro
08. III. Adagio
09. IV. Allegro
Concerto grosso No. 3 in mi mineur
10. I. Adagio e staccato - Allegro
11. II. Adagio
12. III. Allegro
Concerto grosso No. 4 in ré mineur
13. I. Largo e staccato - Largo - Allegro
14. II. Vivace
Concerto grosso No. 5 in si bemolle
15. I. Adagio
16. II. [Allegro]
17. III. Adagio
18. IV. Allegro
Concerto grosso No. 6 in mi minore
19. I. Adagio - Allegro - Adagio
20. II. Allegro


Exact Audio Copy V1.0 beta 3 from 29. August 2011

EAC extraction logfile from 2. May 2017, 12:54

Fabio Biondi, Europa Galante / Geminiani - Concerti grossi Op.3

Used drive : hp DVD-RAM UJ8D1 Adapter: 0 ID: 0

Read mode : Secure
Utilize accurate stream : Yes
Defeat audio cache : Yes
Make use of C2 pointers : No

Read offset correction : 6
Overread into Lead-In and Lead-Out : No
Fill up missing offset samples with silence : Yes
Delete leading and trailing silent blocks : No
Null samples used in CRC calculations : Yes
Used interface : Native Win32 interface for Win NT & 2000

Used output format : User Defined Encoder
Selected bitrate : 768 kBit/s
Quality : High
Add ID3 tag : No
Command line compressor : C:\Program Files (x86)\Exact Audio Copy\FLAC\FLAC.EXE
Additional command line options : -8 -V -T "ARTIST=%artist%" -T "TITLE=%title%" -T "ALBUM=%albumtitle%" -T "DATE=%year%" -T "TRACKNUMBER=%tracknr%" -T "GENRE=%genre%" -T "PERFORMER=%albuminterpret%" -T "COMPOSER=%composer%" %haslyrics%–tag-from-file=LYRICS="%lyricsfile%"%haslyrics% -T "ALBUMARTIST=%albumartist%" -T "DISCNUMBER=%cdnumber%" -T "TOTALDISCS=%totalcds%" -T "TOTALTRACKS=%numtracks%" -T "COMMENT=%comment%" %source% -o %dest%


TOC of the extracted CD

Track | Start | Length | Start sector | End sector
––––––––––––––––––––––––––––-
1 | 0:00.00 | 12:49.62 | 0 | 57736
2 | 12:49.62 | 1:42.35 | 57737 | 65421
3 | 14:32.22 | 3:03.18 | 65422 | 79164
4 | 17:35.40 | 1:47.70 | 79165 | 87259
5 | 19:23.35 | 3:33.37 | 87260 | 103271
6 | 22:56.72 | 1:45.00 | 103272 | 111146
7 | 24:41.72 | 2:11.10 | 111147 | 120981
8 | 26:53.07 | 2:41.63 | 120982 | 133119
9 | 29:34.70 | 3:12.45 | 133120 | 147564
10 | 32:47.40 | 2:28.45 | 147565 | 158709
11 | 35:16.10 | 1:41.30 | 158710 | 166314
12 | 36:57.40 | 3:31.10 | 166315 | 182149
13 | 40:28.50 | 5:27.35 | 182150 | 206709
14 | 45:56.10 | 2:12.22 | 206710 | 216631
15 | 48:08.32 | 1:10.40 | 216632 | 221921
16 | 49:18.72 | 2:26.30 | 221922 | 232901
17 | 51:45.27 | 2:09.73 | 232902 | 242649
18 | 53:55.25 | 1:15.37 | 242650 | 248311
19 | 55:10.62 | 3:59.33 | 248312 | 266269
20 | 59:10.20 | 2:09.12 | 266270 | 275956


Range status and errors

Selected range

Filename C:\cunctator\Geminiani - Concerti grossi Op.3 - Biondi.wav

Peak level 89.9 %
Extraction speed 4.6 X
Range quality 100.0 %
Test CRC 7156EDC7
Copy CRC 7156EDC7
Copy OK

No errors occurred


AccurateRip summary

Track 1 accurately ripped (confidence 2) [57160A8D] (AR v1)
Track 2 accurately ripped (confidence 2) [DD0D4122] (AR v2)
Track 3 accurately ripped (confidence 2) [57C1FED7] (AR v2)
Track 4 accurately ripped (confidence 2) [592186A7] (AR v2)
Track 5 accurately ripped (confidence 2) [07E27BCB] (AR v1)
Track 6 accurately ripped (confidence 2) [EB02F3B6] (AR v2)
Track 7 accurately ripped (confidence 2) [4377A4A4] (AR v2)
Track 8 accurately ripped (confidence 2) [3F6DE49A] (AR v2)
Track 9 accurately ripped (confidence 2) [DCF7B58D] (AR v1)
Track 10 accurately ripped (confidence 2) [60123441] (AR v2)
Track 11 accurately ripped (confidence 2) [77475E3D] (AR v2)
Track 12 accurately ripped (confidence 2) [D1021C80] (AR v1)
Track 13 accurately ripped (confidence 2) [845B2644] (AR v2)
Track 14 accurately ripped (confidence 2) [5325BC81] (AR v1)
Track 15 accurately ripped (confidence 2) [31980B5F] (AR v2)
Track 16 accurately ripped (confidence 2) [E759A576] (AR v2)
Track 17 accurately ripped (confidence 2) [1F706B8A] (AR v2)
Track 18 accurately ripped (confidence 2) [9B384384] (AR v1)
Track 19 accurately ripped (confidence 2) [096D9BE0] (AR v2)
Track 20 accurately ripped (confidence 2) [8B9231C1] (AR v2)

All tracks accurately ripped

End of status report

==== Log checksum E09CE429C280E92438A67BCB3EC4134F908A8C3BFC155832886EADFE73B8E8D0 ====

Fabio Biondi, Europa Galante - Geminiani: Concerti grossi, Op. 3 (1997)

Thanks to the original releaser