Tags
Language
Tags

Fabio Biondi, Europa Galante - Pietro Antonio Locatelli: Concerti Grossi (1995)

Posted By: ArlegZ
Fabio Biondi, Europa Galante - Pietro Antonio Locatelli: Concerti Grossi (1995)

Fabio Biondi, Europa Galante - Pietro Antonio Locatelli: Concerti Grossi (1995)
EAC | FLAC | Image (Cue & Log) ~ 259 Mb | Total time: 53:50 | Scans included
Classical | Label: Opus 111 | OPS 30-104 | Recorded: 1994

Het ensemble Europe Galante, onder leiding van Fabio Biondi, is sinds zijn oprichting in 1989 uitgegroeid tot één van de belangrijkste muziekgroepen op het gebied van de zeventiende- en achttiende-eeuwse Italiaanse barokmuziek. Op het programma staan dan ook verschillende Italiaanse componisten uit die tijd. Francesco Geminiani (1687-1762) en Pietro Locatelli (1695-1764) waren in hun tijd beroemd om hun virtuoos vioolspel. Hun muziek is tegelijk vurig en virtuoos, maar blijft steeds elegant en hoogst melodieus.

Performer:
Europa Galante
Fabio Biondi, violin & direction

Track List:
Concerto Grosso in D major, Op. 1/5
01. Largo
02. Allegro
03. Largo
04. Allegro
Sinfonia, for 2 violins, viola & bass in F minor (manuscript)
05. Lamento (Largo)
06. Alla Breve Ma Moderato
07. Grave
08. Non Presto
09. La Consolatione (Andante)
10. Andante
11. Allegro
Concerto Grosso in E flat major, Op. 7/6
12. Adagio
13. Andante
14. Allegro
15. Largo
16. Largo Andante
17. Grave
18. Allegro
19. Largo
Concerto Grosso in C minor, Op. 1/2
20. Adagio
21. Allegro
22. Largo
23. Allegro
24. Allegro
Concerto Grosso in G minor, Op. 1/12
25. Largo
26. Allemanda (Allegro)
27. Sarabanda (Vivace)
28. Presto
29. Gavotta (Allegro)


Exact Audio Copy V1.3 from 2. September 2016

EAC extraction logfile from 30. May 2018, 16:26

Fabio Biondi & Europa Galante / Locatelli: Concerti Grossi

Used drive : TSSTcorpDVDWBD SE-406AB Adapter: 1 ID: 2

Read mode : Secure
Utilize accurate stream : Yes
Defeat audio cache : Yes
Make use of C2 pointers : No

Read offset correction : 6
Overread into Lead-In and Lead-Out : No
Fill up missing offset samples with silence : Yes
Delete leading and trailing silent blocks : No
Null samples used in CRC calculations : Yes
Used interface : Native Win32 interface for Win NT & 2000

Used output format : User Defined Encoder
Selected bitrate : 1024 kBit/s
Quality : High
Add ID3 tag : No
Command line compressor : C:\Program Files (x86)\Exact Audio Copy\FLAC\FLAC.EXE
Additional command line options : -8 -e -p -V -T "ARTIST=%artist%" -T "TITLE=%title%" -T "ALBUM=%albumtitle%" -T "DATE=%year%" -T "TRACKNUMBER=%tracknr%" -T "GENRE=%genre%" -T "PERFORMER=%albuminterpret%" -T "COMPOSER=%composer%" %haslyrics%–tag-from-file=LYRICS="%lyricsfile%"%haslyrics% -T "ALBUMARTIST=%albumartist%" -T "DISCNUMBER=%cdnumber%" -T "TOTALDISCS=%totalcds%" -T "TOTALTRACKS=%numtracks%" -T "COMMENT=%comment%" %source% -o %dest%


TOC of the extracted CD

Track | Start | Length | Start sector | End sector
––––––––––––––––––––––––––––-
1 | 0:00.00 | 1:38.30 | 0 | 7379
2 | 1:38.30 | 1:45.52 | 7380 | 15306
3 | 3:24.07 | 2:05.60 | 15307 | 24741
4 | 5:29.67 | 2:30.23 | 24742 | 36014
5 | 8:00.15 | 1:22.42 | 36015 | 42206
6 | 9:22.57 | 1:54.55 | 42207 | 50811
7 | 11:17.37 | 2:36.63 | 50812 | 62574
8 | 13:54.25 | 3:18.42 | 62575 | 77466
9 | 17:12.67 | 2:42.33 | 77467 | 89649
10 | 19:55.25 | 1:02.25 | 89650 | 94324
11 | 20:57.50 | 0:33.60 | 94325 | 96859
12 | 21:31.35 | 1:04.52 | 96860 | 101711
13 | 22:36.12 | 1:04.55 | 101712 | 106566
14 | 23:40.67 | 0:32.43 | 106567 | 109009
15 | 24:13.35 | 1:43.55 | 109010 | 116789
16 | 25:57.15 | 3:17.52 | 116790 | 131616
17 | 29:14.67 | 1:50.13 | 131617 | 139879
18 | 31:05.05 | 0:45.05 | 139880 | 143259
19 | 31:50.10 | 3:03.62 | 143260 | 157046
20 | 34:53.72 | 1:57.50 | 157047 | 165871
21 | 36:51.47 | 2:34.53 | 165872 | 177474
22 | 39:26.25 | 2:02.37 | 177475 | 186661
23 | 41:28.62 | 1:03.55 | 186662 | 191441
24 | 42:32.42 | 2:14.23 | 191442 | 201514
25 | 44:46.65 | 1:55.02 | 201515 | 210141
26 | 46:41.67 | 1:53.23 | 210142 | 218639
27 | 48:35.15 | 1:33.45 | 218640 | 225659
28 | 50:08.60 | 1:26.25 | 225660 | 232134
29 | 51:35.10 | 2:13.55 | 232135 | 242164


Range status and errors

Selected range

Filename K:\Rips\Locatelli - Concerti Grossi - Europa Galante\Fabio Biondi & Europa Galante - Locatelli- Concerti Grossi.wav

Peak level 97.4 %
Extraction speed 1.9 X
Range quality 100.0 %
Test CRC A49152A5
Copy CRC A49152A5
Copy OK

No errors occurred


AccurateRip summary

Track 1 accurately ripped (confidence 18) [240EA5A3] (AR v2)
Track 2 accurately ripped (confidence 18) [8581CB3E] (AR v2)
Track 3 accurately ripped (confidence 18) [0225C76B] (AR v2)
Track 4 accurately ripped (confidence 18) [315323DA] (AR v2)
Track 5 accurately ripped (confidence 18) [617C5677] (AR v2)
Track 6 accurately ripped (confidence 18) [2B3D0F2E] (AR v2)
Track 7 accurately ripped (confidence 18) [FA96E152] (AR v2)
Track 8 accurately ripped (confidence 18) [2BFCA234] (AR v2)
Track 9 accurately ripped (confidence 18) [9C430C8B] (AR v2)
Track 10 accurately ripped (confidence 18) [35D7D25F] (AR v2)
Track 11 accurately ripped (confidence 18) [5F7C7972] (AR v2)
Track 12 accurately ripped (confidence 18) [7B06B446] (AR v2)
Track 13 accurately ripped (confidence 18) [066AC424] (AR v2)
Track 14 accurately ripped (confidence 18) [F2644A56] (AR v2)
Track 15 accurately ripped (confidence 18) [38CFB651] (AR v2)
Track 16 accurately ripped (confidence 18) [3C070DB4] (AR v2)
Track 17 accurately ripped (confidence 18) [984F6A39] (AR v2)
Track 18 accurately ripped (confidence 18) [2EC6377A] (AR v2)
Track 19 accurately ripped (confidence 18) [F9D88FDC] (AR v2)
Track 20 accurately ripped (confidence 18) [0C749EF3] (AR v2)
Track 21 accurately ripped (confidence 18) [26F6FCD7] (AR v2)
Track 22 accurately ripped (confidence 18) [D1DA7921] (AR v2)
Track 23 accurately ripped (confidence 18) [92E265B0] (AR v2)
Track 24 accurately ripped (confidence 18) [4AE6CD80] (AR v2)
Track 25 accurately ripped (confidence 18) [96BB1DD8] (AR v2)
Track 26 accurately ripped (confidence 18) [D1E33C95] (AR v2)
Track 27 accurately ripped (confidence 18) [7D891F03] (AR v2)
Track 28 accurately ripped (confidence 18) [12225DB0] (AR v2)
Track 29 accurately ripped (confidence 18) [D0581E22] (AR v2)

All tracks accurately ripped

End of status report

–– CUETools DB Plugin V2.1.6

[CTDB TOCID: 9TnUzTFnkk0SKOntPnhz5CbKA24-] found
Submit result: 9TnUzTFnkk0SKOntPnhz5CbKA24- has been confirmed
Track | CTDB Status
1 | (31/31) Accurately ripped
2 | (31/31) Accurately ripped
3 | (31/31) Accurately ripped
4 | (31/31) Accurately ripped
5 | (31/31) Accurately ripped
6 | (31/31) Accurately ripped
7 | (31/31) Accurately ripped
8 | (31/31) Accurately ripped
9 | (31/31) Accurately ripped
10 | (31/31) Accurately ripped
11 | (31/31) Accurately ripped
12 | (31/31) Accurately ripped
13 | (31/31) Accurately ripped
14 | (31/31) Accurately ripped
15 | (31/31) Accurately ripped
16 | (29/31) Accurately ripped, or (2/31) differs in 16 samples @02:26:51,02:57:64,03:15:57
17 | (29/31) Accurately ripped, or (2/31) differs in 71 samples @00:07:27,00:11:07,00:49:69,00:56:61-00:56:62,00:57:12,01:01:55-01:01:56,01:13:18,01:14:49,01:19:43,01:23:63,01:28:71
18 | (29/31) Accurately ripped, or (2/31) differs in 327 samples @00:00:73,00:06:38,00:08:04,00:09:53-00:09:54,00:13:54,00:18:18-00:18:19,00:29:73-00:29:74,00:31:21,00:33:62,00:36:61,00:40:29,00:41:05-00:41:06,00:44:62
19 | (29/31) Accurately ripped, or (2/31) differs in 188 samples @00:00:74,00:01:27-00:01:28,00:05:22-00:05:23,00:06:05-00:06:06,00:09:23-00:09:24,00:14:42-00:14:43,00:21:65,00:27:42,00:31:05,00:32:52-00:32:53,00:40:66
20 | (31/31) Accurately ripped
21 | (31/31) Accurately ripped
22 | (31/31) Accurately ripped
23 | (31/31) Accurately ripped
24 | (31/31) Accurately ripped
25 | (30/31) Accurately ripped
26 | (31/31) Accurately ripped
27 | (31/31) Accurately ripped
28 | (31/31) Accurately ripped
29 | (31/31) Accurately ripped


==== Log checksum 636A98027222C15AE38AABF828C425C338BB5174FF2411934CC38E5EE64D84BF ====

Fabio Biondi, Europa Galante - Pietro Antonio Locatelli: Concerti Grossi (1995)

Thanks to the original releaser