Tags
Language
Tags

Fabio Biondi, Europa Galante - Vivaldi: Argippo (2020)

Posted By: ArlegZ
Fabio Biondi, Europa Galante - Vivaldi: Argippo (2020)

Fabio Biondi, Europa Galante - Vivaldi: Argippo (2020)
EAC | FLAC | Tracks (Cue & Log) ~ 670 Mb | Total time: 2h 03' | Scans included
Classical | Label: Naïve | OP 7079 | Recorded: 2019

With this second contribution to the Vivaldi Edition, Fabio Biondi and his ensemble Europa Galante sign here the recording of the twentieth opera of the collection - a pasticcio in which Vivaldi ‘recycles’ hit tunes from the ‘World of Warcraft’ operas of his contemporaries.
More than any other, this work has, narrowly, escaped oblivion. The original score, composed by Vivaldi in 1730 for Vienna and Prague, having been lost. A meticulous reconstruction of the manuscript was carried out by the musicologist Bernardo Ticci - for whom Vivaldi’s music has no secrets - from several existing sources scattered in Eastern Europe (the booklets of the two productions, a collection of arias and a work Anonymous, enhanced with arias by Galeazzi, Pescetti, Hasse, Porpora, Fiorè and Vinci). This is the version of this pasticcio which is here recreated and recorded.
Lovers’ rivalries and family conflicts, accumulation of misunderstandings, upset feelings and exacerbated emotions are an inexhaustible source of inspiration for Vivaldi. The Venetian composer finds in the text of Domenico Lalli - librettist of several lyrical works inspired by the Empire moghol - all the springs conducive to a contrasting and always glowing writing at the fires of love to death: rowdy and fiery or even hallucinatory allegros, tender or anguished cantabile, writing ‘gallant’… virtuous in its vocality as well as in its instrumental lines, “this improbable opera bears the seal of an authentic Vivaldian pasticcio,” wrote Reinhard Strohm.

Performer:
Argippo - Emőke Baráth (soprano)
Osira - Marie Lys (soprano)
Zanaida - Delphine Galou (contralto)
Silvero - Marianna Pizzolato (mezzo-soprano)
Tisifaro - Luigi De Donato (bass)
Europa Galante
Conductor - Fabio Biondi

Track List:
CD1:
Sinfonia RV 112
01. Allegro molto
02. Andante
03. Presto
Atto primo
04. Atto I. Scena 1 [Tisifaro, Zanaida] Recitativo: Figlia viver per sempre
05. Scena 1 [Zanaida] Aria: Se lento ancora il fulmine
06. Scena 2 [Tisifaro, Silvero] Recitativo: In quai confusi sensi
07. Scena 2 [Tisifaro] Aria: Rege son che combattuto
08. Scena 3 [Silvero] Recitativo: Infelice Zanaida
09. Scena 3 [Silvero] Aria: Del fallire il rimorso è la pena
10. Scena 4 [Coro] Di Cingone il regnante sen viene
11. Scena 4 [Zanaida, Silvero, Osira, Argippo] Recitativo: Qui son giunti coloro
12. Scena 4 [Argippo] Aria: Anche in mezzo a perigliosa
13. Scena 5 [Osira] Recitativo: Di Zanaida le furie
14. Scena 5 [Osira] Aria: Qual disarmata nave
15. Scena 6 [Tisifaro, Zanaida] Recitativo: Che mi giova aver vinti
16. Scena 6 [Tisifaro] Aria: Dov’è la morte
Atto secondo
17. Scena 1 [Silvero, Zanaida, Osira] Recitativo: Zanaida, se pur vive
18. Scena 1 [Zanaida] Aria: Che gran pena trafigge il mio core
19. Scena 2 [Osira, Silvero, Argippo] Recitativo: Con quali ingiusti sensi
20. Scena 2 [Silvero] Aria: Non temer e datti pace
21. Scena 3 [Osira, Argippo] Recitativo: Caro la mia virtude
22. Scena 3 [Osira] Aria: Bell’idolo amato
CD2:
01. Scena 4 [Osira] Recitativo: Temo, ne so di che
02. Scena 4 [Osira] Aria: Un certo non so che
03. Scena 5 [Tisifaro, Silvero] Recitativo: Perfidissime stelle
04. Scena 6 [Argippo, Tisifaro] Recitativo: Qui siedi
05. Scena 7 [Tisifaro, Zanaida, Argippo] Recitativo: Figlia, Argippo ti chiede
06. Scena 7 [Zanaida] Aria: Io son rea dell’ onor mio
07. Scena 8 [Tisifaro, Argippo] Recitativo: Sei convinto abbastanza
08. Scena 8 [Tisifaro] Aria: A’ piedi miei svenato
09. Scena 9 [Argippo] Recitativo: Io consigliero?
10. Scena 9 [Argippo] Aria: Da più venti combattuta
Atto terzo
11. Scena 1 [Osira, Argippo] Recitativo: Da larve spaventose
12. Scena 1 [Osira] Aria: Mi sento nel core
13. Scena 1 [Osira, Argippo] Recitativo: Ma viene Argippo
14. Scena 2 [Osira, Silvero, Argippo, Tisifaro] Recitativo: Deh, che far tenti?
15. Scena 2 [Osira] Aria: Vado a morir per te
16. Scena 3 [Argippo] Recitativo: Che siete? dove son io?
17. Scena 3 [Argippo] Aria: Vi sarà stella clemente
18. Scena 4 [Zanaida, Silvero] Recitativo: Silvero, e qual affanno
19. Scena 4 [Zanaida] Aria: Se d’un amor tiranno
20. Scena 5 [Silvero] Recitativo: Infelice amor mio
21. Scena 5 [Silvero] Aria: Se la bella tortorella
22. Scena 6 [Tisifaro, Silvero, Zanaida, Argippo] Recitativo: E morta Osira?
23. Scena 6 [Tisifaro, Silvero, Zanaida, Argippo] Recitativo: Figlia, t'arresta
24. Scena ultima [Osira, Tisifaro, Silvero, Zanaida, Argippo] Recitativo: Osira vive
25. Scena ultima [Osira] Aria: Che farai?
26. Scena ultima [Osira, Tisifaro, Silvero, Zanaida, Argippo] Recitativo: gran re, gran genitor
27. Scena ultima [Coro] Se d’inganno amor si pasce


Exact Audio Copy V1.5 from 20. February 2020

EAC extraction logfile from 19. January 2021, 15:47

Fabio Biondi, Europa Galante / Vivaldi - Argippo CD1

Used drive : HL-DT-STDVDRAM GH24NS95 Adapter: 1 ID: 0

Read mode : Secure
Utilize accurate stream : Yes
Defeat audio cache : Yes
Make use of C2 pointers : No

Read offset correction : 6
Overread into Lead-In and Lead-Out : No
Fill up missing offset samples with silence : Yes
Delete leading and trailing silent blocks : No
Null samples used in CRC calculations : Yes
Used interface : Native Win32 interface for Win NT & 2000
Gap handling : Not detected, thus appended to previous track

Used output format : User Defined Encoder
Selected bitrate : 128 kBit/s
Quality : High
Add ID3 tag : No
Command line compressor : C:\Program Files\Exact Audio Copy\Flac\flac.exe
Additional command line options : -V -8 -T "Date=%year%" -T "Genre=%genre%" %source%


TOC of the extracted CD

Track | Start | Length | Start sector | End sector
––––––––––––––––––––––––––––-
1 | 0:00.00 | 1:47.62 | 0 | 8086
2 | 1:47.62 | 1:48.27 | 8087 | 16213
3 | 3:36.14 | 0:22.71 | 16214 | 17934
4 | 3:59.10 | 1:17.53 | 17935 | 23762
5 | 5:16.63 | 3:38.57 | 23763 | 40169
6 | 8:55.45 | 0:55.11 | 40170 | 44305
7 | 9:50.56 | 6:18.49 | 44306 | 72704
8 | 16:09.30 | 0:46.14 | 72705 | 76168
9 | 16:55.44 | 3:31.64 | 76169 | 92057
10 | 20:27.33 | 0:51.28 | 92058 | 95910
11 | 21:18.61 | 2:51.70 | 95911 | 108805
12 | 24:10.56 | 4:02.25 | 108806 | 126980
13 | 28:13.06 | 0:30.65 | 126981 | 129295
14 | 28:43.71 | 5:20.04 | 129296 | 153299
15 | 34:04.00 | 2:19.42 | 153300 | 163766
16 | 36:23.42 | 4:21.20 | 163767 | 183361
17 | 40:44.62 | 1:15.26 | 183362 | 189012
18 | 42:00.13 | 6:11.67 | 189013 | 216904
19 | 48:12.05 | 0:45.52 | 216905 | 220331
20 | 48:57.57 | 5:29.47 | 220332 | 245053
21 | 54:27.29 | 0:45.29 | 245054 | 248457
22 | 55:12.58 | 4:53.57 | 248458 | 270489


Track 1

Filename C:\ArlegZ\01 Sinfonia RV 112- Allegro.wav

Peak level 68.4 %
Extraction speed 0.8 X
Track quality 100.0 %
Test CRC FD51EB57
Copy CRC FD51EB57
Accurately ripped (confidence 1) [954ED905] (AR v2)
Copy OK

Track 2

Filename C:\ArlegZ\02 Sinfonia RV 112- Andante.wav

Peak level 17.5 %
Extraction speed 0.8 X
Track quality 100.0 %
Test CRC E33A9145
Copy CRC E33A9145
Accurately ripped (confidence 1) [AAB38C33] (AR v2)
Copy OK

Track 3

Filename C:\ArlegZ\03 Sinfonia RV 112- Presto.wav

Peak level 64.0 %
Extraction speed 0.4 X
Track quality 100.0 %
Test CRC C6146CA4
Copy CRC C6146CA4
Accurately ripped (confidence 1) [2256AE6C] (AR v2)
Copy OK

Track 4

Filename C:\ArlegZ\04 Atto I. Scena 1 [Tisifaro, Zanaida] Recitativo- Figlia viver per sempre.wav

Peak level 72.4 %
Extraction speed 0.6 X
Track quality 99.8 %
Test CRC 65667784
Copy CRC 65667784
Accurately ripped (confidence 1) [13E80224] (AR v2)
Copy OK

Track 5

Filename C:\ArlegZ\05 Scena 1 [Zanaida] Aria- Se lento ancora il fulmine.wav

Peak level 91.6 %
Extraction speed 1.0 X
Track quality 99.9 %
Test CRC 6AA6612A
Copy CRC 6AA6612A
Accurately ripped (confidence 1) [C0E399BF] (AR v2)
Copy OK

Track 6

Filename C:\ArlegZ\06 Scena 2 [Tisifaro, Silvero] Recitativo- In quai confusi sensi.wav

Peak level 66.8 %
Extraction speed 0.8 X
Track quality 100.0 %
Test CRC 93C8F262
Copy CRC 93C8F262
Accurately ripped (confidence 1) [E1FE81FF] (AR v2)
Copy OK

Track 7

Filename C:\ArlegZ\07 Scena 2 [Tisifaro] Aria- Rege son che combattuto.wav

Peak level 91.4 %
Extraction speed 1.3 X
Track quality 100.0 %
Test CRC 42682C83
Copy CRC 42682C83
Accurately ripped (confidence 1) [6BF2D88E] (AR v2)
Copy OK

Track 8

Filename C:\ArlegZ\08 Scena 3 [Silvero] Recitativo- Infelice Zanaida.wav

Peak level 64.8 %
Extraction speed 0.8 X
Track quality 100.0 %
Test CRC 02465A72
Copy CRC 02465A72
Accurately ripped (confidence 1) [20D70CA1] (AR v2)
Copy OK

Track 9

Filename C:\ArlegZ\09 Scena 3 [Silvero] Aria- Del fallire il rimorso e la pena.wav

Peak level 91.2 %
Extraction speed 1.4 X
Track quality 100.0 %
Test CRC 261A8E6E
Copy CRC 261A8E6E
Accurately ripped (confidence 1) [4D8ED246] (AR v2)
Copy OK

Track 10

Filename C:\ArlegZ\10 Scena 4 [Coro] Di Cingone il regnante sen viene.wav

Peak level 89.1 %
Extraction speed 0.9 X
Track quality 100.0 %
Test CRC B62194B7
Copy CRC B62194B7
Accurately ripped (confidence 1) [57A81988] (AR v2)
Copy OK

Track 11

Filename C:\ArlegZ\11 Scena 4 [Zanaida, Silvero, Osira, Argippo] Recitativo- Qui son giunti coloro.wav

Peak level 91.2 %
Extraction speed 1.4 X
Track quality 100.0 %
Test CRC 1E5460E1
Copy CRC 1E5460E1
Accurately ripped (confidence 1) [74288429] (AR v2)
Copy OK

Track 12

Filename C:\ArlegZ\12 Scena 4 [Argippo] Aria- Anche in mezzo a perigliosa, minacciosa atra procella.wav

Peak level 91.6 %
Extraction speed 1.3 X
Track quality 99.9 %
Test CRC B6D87882
Copy CRC B6D87882
Accurately ripped (confidence 1) [0EF2B3DA] (AR v2)
Copy OK

Track 13

Filename C:\ArlegZ\13 Scena 5 [Osira] Recitativo- Di Zanaida le furie.wav

Peak level 65.8 %
Extraction speed 0.5 X
Track quality 99.6 %
Test CRC 31B9772F
Copy CRC 31B9772F
Accurately ripped (confidence 1) [045377E8] (AR v2)
Copy OK

Track 14

Filename C:\ArlegZ\14 Scena 5 [Osira] Aria- Qual disarmata nave.wav

Peak level 91.5 %
Extraction speed 1.5 X
Track quality 99.9 %
Test CRC F1B6BF39
Copy CRC F1B6BF39
Accurately ripped (confidence 1) [566421A3] (AR v2)
Copy OK

Track 15

Filename C:\ArlegZ\15 Scena 6 [Tisifaro, Zanaida] Recitativo- Che mi giova aver vinti.wav

Peak level 77.9 %
Extraction speed 1.6 X
Track quality 100.0 %
Test CRC 4E251179
Copy CRC 4E251179
Accurately ripped (confidence 1) [3E34B737] (AR v2)
Copy OK

Track 16

Filename C:\ArlegZ\16 Scena 6 [Tisifaro] Aria- Dov’è la morte.wav

Peak level 91.3 %
Extraction speed 1.6 X
Track quality 99.9 %
Test CRC 7871B950
Copy CRC 7871B950
Accurately ripped (confidence 1) [FB855A78] (AR v2)
Copy OK

Track 17

Filename C:\ArlegZ\17 Atto II. Scena 1 [Silvero, Zanaida, Osira] Recitativo- Zanaida, se pur vive.wav

Peak level 76.3 %
Extraction speed 1.0 X
Track quality 99.8 %
Test CRC FBE21AA6
Copy CRC FBE21AA6
Accurately ripped (confidence 1) [0F5F2D3B] (AR v2)
Copy OK

Track 18

Filename C:\ArlegZ\18 Scena 1 [Zanaida] Aria- Che gran pena trafigge il mio core.wav

Peak level 91.3 %
Extraction speed 2.0 X
Track quality 100.0 %
Test CRC 6B61232B
Copy CRC 6B61232B
Accurately ripped (confidence 1) [B385B583] (AR v2)
Copy OK

Track 19

Filename C:\ArlegZ\19 Scena 2 [Osira, Silvero, Argippo] Recitativo- Con quali ingiusti sensi.wav

Peak level 66.8 %
Extraction speed 1.2 X
Track quality 100.0 %
Test CRC 9B2AEFCF
Copy CRC 9B2AEFCF
Accurately ripped (confidence 1) [D8A42587] (AR v2)
Copy OK

Track 20

Filename C:\ArlegZ\20 Scena 2 [Silvero] Aria- Non temer e datti pace.wav

Peak level 91.3 %
Extraction speed 2.0 X
Track quality 100.0 %
Test CRC 402AA170
Copy CRC 402AA170
Accurately ripped (confidence 1) [73829C62] (AR v2)
Copy OK

Track 21

Filename C:\ArlegZ\21 Scena 3 [Osira, Argippo] Recitativo- Caro la mia virtude.wav

Peak level 86.5 %
Extraction speed 1.2 X
Track quality 100.0 %
Test CRC 4683D96A
Copy CRC 4683D96A
Accurately ripped (confidence 1) [50FC79D4] (AR v2)
Copy OK

Track 22

Filename C:\ArlegZ\22 Scena 3 [Osira] Aria- Bell’idolo amato.wav

Peak level 91.7 %
Extraction speed 2.1 X
Track quality 100.0 %
Test CRC 45DF4FFB
Copy CRC 45DF4FFB
Accurately ripped (confidence 1) [64E28A34] (AR v2)
Copy OK


All tracks accurately ripped

No errors occurred

End of status report

–– CUETools DB Plugin V2.1.6

[CTDB TOCID: KoC5S5veIuyFt8p58HgD0vSc9CI-] found
Submit result: KoC5S5veIuyFt8p58HgD0vSc9CI- has been confirmed
Track | CTDB Status
1 | (7/7) Accurately ripped
2 | (7/7) Accurately ripped
3 | (7/7) Accurately ripped
4 | (7/7) Accurately ripped
5 | (7/7) Accurately ripped
6 | (7/7) Accurately ripped
7 | (7/7) Accurately ripped
8 | (7/7) Accurately ripped
9 | (7/7) Accurately ripped
10 | (7/7) Accurately ripped
11 | (7/7) Accurately ripped
12 | (7/7) Accurately ripped
13 | (7/7) Accurately ripped
14 | (7/7) Accurately ripped
15 | (7/7) Accurately ripped
16 | (7/7) Accurately ripped
17 | (7/7) Accurately ripped
18 | (7/7) Accurately ripped
19 | (7/7) Accurately ripped
20 | (7/7) Accurately ripped
21 | (7/7) Accurately ripped
22 | (7/7) Accurately ripped


==== Log checksum 3C756FB562CDAC797CB7246EDE06020B127D45BBF5957490B041DCC24021129F ====


Exact Audio Copy V1.5 from 20. February 2020

EAC extraction logfile from 19. January 2021, 18:35

Fabio Biondi, Europa Galante / Vivaldi - Argippo CD2

Used drive : HL-DT-STDVDRAM GH24NS95 Adapter: 1 ID: 0

Read mode : Secure
Utilize accurate stream : Yes
Defeat audio cache : Yes
Make use of C2 pointers : No

Read offset correction : 6
Overread into Lead-In and Lead-Out : No
Fill up missing offset samples with silence : Yes
Delete leading and trailing silent blocks : No
Null samples used in CRC calculations : Yes
Used interface : Native Win32 interface for Win NT & 2000
Gap handling : Not detected, thus appended to previous track

Used output format : User Defined Encoder
Selected bitrate : 128 kBit/s
Quality : High
Add ID3 tag : No
Command line compressor : C:\Program Files\Exact Audio Copy\Flac\flac.exe
Additional command line options : -V -8 -T "Date=%year%" -T "Genre=%genre%" %source%


TOC of the extracted CD

Track | Start | Length | Start sector | End sector
––––––––––––––––––––––––––––-
1 | 0:00.00 | 0:29.60 | 0 | 2234
2 | 0:29.60 | 3:05.22 | 2235 | 16131
3 | 3:35.07 | 1:20.47 | 16132 | 22178
4 | 4:55.54 | 3:11.03 | 22179 | 36506
5 | 8:06.57 | 1:01.40 | 36507 | 41121
6 | 9:08.22 | 5:42.60 | 41122 | 66831
7 | 14:51.07 | 0:14.55 | 66832 | 67936
8 | 15:05.62 | 3:47.00 | 67937 | 84961
9 | 18:52.62 | 0:41.64 | 84962 | 88100
10 | 19:34.51 | 5:23.21 | 88101 | 112346
11 | 24:57.72 | 0:57.48 | 112347 | 116669
12 | 25:55.45 | 4:04.39 | 116670 | 135008
13 | 30:00.09 | 1:24.62 | 135009 | 141370
14 | 31:24.71 | 0:56.56 | 141371 | 145626
15 | 32:21.52 | 3:48.44 | 145627 | 162770
16 | 36:10.21 | 1:13.69 | 162771 | 168314
17 | 37:24.15 | 6:29.60 | 168315 | 197549
18 | 43:54.00 | 0:53.15 | 197550 | 201539
19 | 44:47.15 | 4:25.37 | 201540 | 221451
20 | 49:12.52 | 0:33.56 | 221452 | 223982
21 | 49:46.33 | 5:35.29 | 223983 | 249136
22 | 55:21.62 | 1:07.59 | 249137 | 254220
23 | 56:29.46 | 1:47.53 | 254221 | 262298
24 | 58:17.24 | 0:34.54 | 262299 | 264902
25 | 58:52.03 | 0:58.61 | 264903 | 269313
26 | 59:50.64 | 1:33.11 | 269314 | 276299
27 | 61:24.00 | 1:08.30 | 276300 | 281429


Track 1

Filename C:\ArlegZ\01 Scena 4 [Osira] Recitativo- Temo, ne so di che.wav

Peak level 91.2 %
Extraction speed 0.4 X
Track quality 100.0 %
Test CRC 2A17790E
Copy CRC 2A17790E
Accurately ripped (confidence 1) [303E8B90] (AR v2)
Copy OK

Track 2

Filename C:\ArlegZ\02 Scena 4 [Osira] Aria- Un certo non so che.wav

Peak level 91.6 %
Extraction speed 0.9 X
Track quality 100.0 %
Test CRC 78C5FD40
Copy CRC 78C5FD40
Accurately ripped (confidence 1) [64E1BEB6] (AR v2)
Copy OK

Track 3

Filename C:\ArlegZ\03 Scena 5 [Tisifaro, Silvero] Recitativo- Perfidissime stelle.wav

Peak level 74.6 %
Extraction speed 0.6 X
Track quality 99.8 %
Test CRC 632D1085
Copy CRC 632D1085
Accurately ripped (confidence 1) [E25BC8EC] (AR v2)
Copy OK

Track 4

Filename C:\ArlegZ\04 Scena 6 [Argippo, Tisifaro] Recitativo- Qui siedi.wav

Peak level 81.0 %
Extraction speed 1.1 X
Track quality 100.0 %
Test CRC 0D70CA6C
Copy CRC 0D70CA6C
Accurately ripped (confidence 1) [9F715932] (AR v2)
Copy OK

Track 5

Filename C:\ArlegZ\05 Scena 7 [Tisifaro, Zanaida, Argippo] Recitativo- Figlia, Argippo ti chiede.wav

Peak level 91.1 %
Extraction speed 0.8 X
Track quality 100.0 %
Test CRC F8D9053D
Copy CRC F8D9053D
Accurately ripped (confidence 1) [39EA6150] (AR v2)
Copy OK

Track 6

Filename C:\ArlegZ\06 Scena 7 [Zanaida] Aria- Io son rea dell’ onor mio.wav

Peak level 91.7 %
Extraction speed 1.3 X
Track quality 100.0 %
Test CRC C675C504
Copy CRC C675C504
Accurately ripped (confidence 1) [CC317157] (AR v2)
Copy OK

Track 7

Filename C:\ArlegZ\07 Scena 8 [Tisifaro, Argippo] Recitativo- Sei convinto abbastanza.wav

Peak level 77.5 %
Extraction speed 0.4 X
Track quality 100.0 %
Test CRC 8C58EDEF
Copy CRC 8C58EDEF
Accurately ripped (confidence 1) [B226AD24] (AR v2)
Copy OK

Track 8

Filename C:\ArlegZ\08 Scena 8 [Tisifaro] Aria- A’ piedi miei svenato.wav

Peak level 91.3 %
Extraction speed 1.3 X
Track quality 100.0 %
Test CRC 47FE605B
Copy CRC 47FE605B
Accurately ripped (confidence 1) [CC6F4B92] (AR v2)
Copy OK

Track 9

Filename C:\ArlegZ\09 Scena 9 [Argippo] Recitativo- Io consigliero.wav

Peak level 71.6 %
Extraction speed 0.8 X
Track quality 100.0 %
Test CRC B370054F
Copy CRC B370054F
Accurately ripped (confidence 1) [24A7669C] (AR v2)
Copy OK

Track 10

Filename C:\ArlegZ\10 Scena 9 [Argippo] Aria- Da più venti combattuta.wav

Peak level 91.5 %
Extraction speed 1.5 X
Track quality 100.0 %
Test CRC 71BA6A2F
Copy CRC 71BA6A2F
Accurately ripped (confidence 1) [2715DC21] (AR v2)
Copy OK

Track 11

Filename C:\ArlegZ\11 Atto III. Scena 1 [Osira, Argippo] Recitativo- Da larve spaventose.wav

Peak level 66.7 %
Extraction speed 1.0 X
Track quality 100.0 %
Test CRC 9A9EEA71
Copy CRC 9A9EEA71
Accurately ripped (confidence 1) [503CEEA1] (AR v2)
Copy OK

Track 12

Filename C:\ArlegZ\12 Scena 1 [Osira] Aria- Mi sento nel core.wav

Peak level 91.3 %
Extraction speed 1.6 X
Track quality 100.0 %
Test CRC 8B4E2461
Copy CRC 8B4E2461
Accurately ripped (confidence 1) [297F160E] (AR v2)
Copy OK

Track 13

Filename C:\ArlegZ\13 Scena 1 [Osira, Argippo] Recitativo- Ma viene Argippo.wav

Peak level 85.3 %
Extraction speed 1.3 X
Track quality 100.0 %
Test CRC FAADA241
Copy CRC FAADA241
Accurately ripped (confidence 1) [69D5959A] (AR v2)
Copy OK

Track 14

Filename C:\ArlegZ\14 Scena 2 [Osira, Silvero, Argippo, Tisifaro] Recitativo- Deh, che far tenti.wav

Peak level 91.1 %
Extraction speed 0.8 X
Track quality 99.8 %
Test CRC 394647ED
Copy CRC 394647ED
Accurately ripped (confidence 1) [FA24F03C] (AR v2)
Copy OK

Track 15

Filename C:\ArlegZ\15 Scena 2 [Osira] Aria- Vado a morir per te.wav

Peak level 89.3 %
Extraction speed 1.6 X
Track quality 100.0 %
Test CRC E180BE52
Copy CRC E180BE52
Accurately ripped (confidence 1) [7C63D10E] (AR v2)
Copy OK

Track 16

Filename C:\ArlegZ\16 Scena 3 [Argippo] Recitativo- Che siete dove son io.wav

Peak level 86.0 %
Extraction speed 1.3 X
Track quality 100.0 %
Test CRC D65F89E5
Copy CRC D65F89E5
Accurately ripped (confidence 1) [526023B5] (AR v2)
Copy OK

Track 17

Filename C:\ArlegZ\17 Scena 3 [Argippo] Aria- Vi sarà stella clemente.wav

Peak level 84.1 %
Extraction speed 1.9 X
Track quality 100.0 %
Test CRC 45D0C855
Copy CRC 45D0C855
Accurately ripped (confidence 1) [299510F9] (AR v2)
Copy OK

Track 18

Filename C:\ArlegZ\18 Scena 4 [Zanaida, Silvero] Recitativo- Silvero, e qual affanno.wav

Peak level 59.9 %
Extraction speed 1.3 X
Track quality 100.0 %
Test CRC 1E350AF5
Copy CRC 1E350AF5
Accurately ripped (confidence 1) [40904964] (AR v2)
Copy OK

Track 19

Filename C:\ArlegZ\19 Scena 4 [Zanaida] Aria- Se d’un amor tiranno.wav

Peak level 91.7 %
Extraction speed 1.9 X
Track quality 100.0 %
Test CRC 6F728A6E
Copy CRC 6F728A6E
Accurately ripped (confidence 1) [6B7604E7] (AR v2)
Copy OK

Track 20

Filename C:\ArlegZ\20 Scena 5 [Silvero] Recitativo- Infelice amor mio.wav

Peak level 45.9 %
Extraction speed 1.0 X
Track quality 100.0 %
Test CRC 4815A50B
Copy CRC 4815A50B
Accurately ripped (confidence 1) [9E6CF770] (AR v2)
Copy OK

Track 21

Filename C:\ArlegZ\21 Scena 5 [Silvero] Aria- Se la bella tortorella.wav

Peak level 91.5 %
Extraction speed 2.1 X
Track quality 100.0 %
Test CRC C12BF5BD
Copy CRC C12BF5BD
Accurately ripped (confidence 1) [EE858C04] (AR v2)
Copy OK

Track 22

Filename C:\ArlegZ\22 Scena 6 [Tisifaro, Silvero, Zanaida, Argippo] Recitativo- E morta Osira.wav

Peak level 88.1 %
Extraction speed 1.5 X
Track quality 100.0 %
Test CRC 9C3853DE
Copy CRC 9C3853DE
Accurately ripped (confidence 1) [5703B57D] (AR v2)
Copy OK

Track 23

Filename C:\ArlegZ\23 Scena 6 [Tisifaro, Silvero, Zanaida, Argippo] Recitativo- Figlia, t'arresta.wav

Peak level 84.9 %
Extraction speed 1.8 X
Track quality 100.0 %
Test CRC F69210EA
Copy CRC F69210EA
Accurately ripped (confidence 1) [C0D033A1] (AR v2)
Copy OK

Track 24

Filename C:\ArlegZ\24 Scena ultima [Osira, Tisifaro, Silvero, Zanaida, Argippo] Recitativo- Osira vive.wav

Peak level 83.8 %
Extraction speed 1.1 X
Track quality 100.0 %
Test CRC A1BBA31E
Copy CRC A1BBA31E
Accurately ripped (confidence 1) [45F98312] (AR v2)
Copy OK

Track 25

Filename C:\ArlegZ\25 Scena ultima [Osira] Aria- Che farai.wav

Peak level 91.1 %
Extraction speed 1.5 X
Track quality 100.0 %
Test CRC 5FF46776
Copy CRC 5FF46776
Accurately ripped (confidence 1) [8E317C1C] (AR v2)
Copy OK

Track 26

Filename C:\ArlegZ\26 Scena ultima [Osira, Tisifaro, Silvero, Zanaida, Argippo] Recitativo- gran re, gran genitor.wav

Peak level 83.9 %
Extraction speed 1.7 X
Track quality 100.0 %
Test CRC D1C52755
Copy CRC D1C52755
Accurately ripped (confidence 1) [585C77D1] (AR v2)
Copy OK

Track 27

Filename C:\ArlegZ\27 Scena ultima [Coro] Se d’inganno amor si pasce.wav

Peak level 83.6 %
Extraction speed 1.2 X
Track quality 99.8 %
Test CRC DDBD7A89
Copy CRC DDBD7A89
Accurately ripped (confidence 1) [A4755439] (AR v2)
Copy OK


All tracks accurately ripped

No errors occurred

End of status report

–– CUETools DB Plugin V2.1.6

[CTDB TOCID: Iduy._FvU_Q7bm4pqEds6v6Zob8-] found
Submit result: Iduy._FvU_Q7bm4pqEds6v6Zob8- has been confirmed
Track | CTDB Status
1 | (6/6) Accurately ripped
2 | (6/6) Accurately ripped
3 | (6/6) Accurately ripped
4 | (6/6) Accurately ripped
5 | (6/6) Accurately ripped
6 | (6/6) Accurately ripped
7 | (6/6) Accurately ripped
8 | (6/6) Accurately ripped
9 | (6/6) Accurately ripped
10 | (6/6) Accurately ripped
11 | (6/6) Accurately ripped
12 | (6/6) Accurately ripped
13 | (6/6) Accurately ripped
14 | (6/6) Accurately ripped
15 | (6/6) Accurately ripped
16 | (6/6) Accurately ripped
17 | (6/6) Accurately ripped
18 | (6/6) Accurately ripped
19 | (6/6) Accurately ripped
20 | (6/6) Accurately ripped
21 | (6/6) Accurately ripped
22 | (6/6) Accurately ripped
23 | (6/6) Accurately ripped
24 | (6/6) Accurately ripped
25 | (6/6) Accurately ripped
26 | (6/6) Accurately ripped
27 | (6/6) Accurately ripped


==== Log checksum 9269AE139E1A36B01CA93ACB774EFD8F634FC4B74BB6270BCCAF296069EC9DB8 ====

Fabio Biondi, Europa Galante - Vivaldi: Argippo (2020)

Thanks to the original releaser