Subcategories

Federico Guglielmo, Collegium Musicum del Conservatorio U.Giordano di Foggia - Paisiello: La Daunia Felice (2007)

Posted By: ArlegZ
Federico Guglielmo, Collegium Musicum del Conservatorio U.Giordano di Foggia - Paisiello: La Daunia Felice (2007)

Federico Guglielmo, Collegium Musicum del Conservatorio U.Giordano di Foggia - Paisiello: La Daunia Felice (2007)
EAC | FLAC | Image (Cue & Log) ~ 310 Mb | Total time: 63:34 | Scans included
Classical | Label: Dynamic | # CDS 516 | Recorded: 2004

This recording of La Daunia Felice ideally concludes a project of study and research that began in 1997 with the Study Seminar organised on the occasion of the bicentenary of the wedding of the heirs to the throne of Naples. In 2002 the Umberto Giordano Conservatory and the Foggia City Authorities promoted the first modern-day scenic performance in the restored Teatro Giordano. Paisiello’s La Daunia Felice was staged in Foggia on 25th June 1797 for the wedding of Prince Francesco, heir apparent to the throne of Naples, to the Archduchess Maria Clementina of Austria. This royal wedding was unquestionably one of the most important events in the history of the city of Foggia and the Capitanata. Indeed, Ferdinand IV and Maria Carolina, with the entire Bourbon court, came for the occasion and stayed in Foggia in a moment that was particularly dramatic for the Kingdom. La Daunia Felice was presumably composed by Paisiello between April and June 1797 and it was staged in the presence of the royal family, the court and a limited circle of the elite of the city, at the 'Palazzo Dogana' [Customs House] in the so-called Feast Hall. According to the libretto the stage props and sets required no small efforts both musically and scenically that had to go well beyond the simple ”pretext” of wishing happiness to the newly-wed couple.

Performer:
Cerere - Donatella Lombardi
Pale - Marina De Liso
Vertumno - Luca Dordolo
Cassandro - Furio Zanasi
Collegium Musicum del Conservatorio U.Giordano di Foggia
Conductor - Federico Guglielmo

Track List:
01. Sinfonia
02. Recitative: Ove siam? Che sarà? (Cerere, Pale, Vertumno)
03. Acc. Recitative: D'un fremito indistinto (Cerere)
04. Aria: Mi aggiro smarrita nel fiero periglio (Cerere)
05. Recitative: Deh, rompiam le dimore (Vertumno, Cerere, Pale)
06. Aria: Care sponde, ov'io finora (Pale)
07. Recitative: Troppo, anch'io lo comprendo (Vertumno)
08. Acc. Recitative: Osserva, ognuno (Vertumno)
09. Aria: Lo sdegno e il favore di sorte incostante (Vertumno)
10. Recitative: Odimi: a venir teco (Pale, Vertumno)
11. Acc. Recitative: Ma parmi: oh, stelle! (Pale, Cerere)
12. Chorus: Come i germi al tronco intorno
13. Recitative: O al Ciel dilette (Cassandro, Cerere, Pale, Vertumno)
14. Aria: D'alte faville accesa qui scuotera la face (Cassandro)
15. Acc. Recitative: Uditemi: gli accenti (Cassandro)
16. Recitative: Sia ver? (Pale, Cassandro, Cerere)
17. Acc. Recitative: Lunga stagion, ma invano (Cassandro, Cerere, Pale, Vertumno)
18. Quartet: Nel tumulto in cui mi trovo (Cerere, Pale, Vertumno, Cassandro)
19. Chorus: Sposi eccelsi il vostro ardore
20. Chorus: Ed il Ciel mill'anni e poi
21. Finale: Ed il Ciel mill'anni e poi


Exact Audio Copy V1.3 from 2. September 2016

EAC extraction logfile from 27. February 2018, 21:53

Federico Guglielmo, Collegium Musicum del Conservatorio U.Giordano di Foggia / Paisiello - La Daunia Felice

Used drive : HL-DT-STDVDRAM GH24NS95 Adapter: 1 ID: 0

Read mode : Secure
Utilize accurate stream : Yes
Defeat audio cache : Yes
Make use of C2 pointers : No

Read offset correction : 6
Overread into Lead-In and Lead-Out : No
Fill up missing offset samples with silence : Yes
Delete leading and trailing silent blocks : No
Null samples used in CRC calculations : Yes
Used interface : Native Win32 interface for Win NT & 2000

Used output format : User Defined Encoder
Selected bitrate : 128 kBit/s
Quality : High
Add ID3 tag : No
Command line compressor : C:\Program Files\Exact Audio Copy\Flac\flac.exe
Additional command line options : -V -8 -T "Date=%year%" -T "Genre=%genre%" %source%


TOC of the extracted CD

Track | Start | Length | Start sector | End sector
––––––––––––––––––––––––––––-
1 | 0:00.00 | 4:57.32 | 0 | 22306
2 | 4:57.32 | 0:57.50 | 22307 | 26631
3 | 5:55.07 | 2:28.05 | 26632 | 37736
4 | 8:23.12 | 5:13.50 | 37737 | 61261
5 | 13:36.62 | 2:09.65 | 61262 | 71001
6 | 15:46.52 | 5:00.13 | 71002 | 93514
7 | 20:46.65 | 1:22.47 | 93515 | 99711
8 | 22:09.37 | 1:33.18 | 99712 | 106704
9 | 23:42.55 | 4:50.52 | 106705 | 128506
10 | 28:33.32 | 0:45.08 | 128507 | 131889
11 | 29:18.40 | 2:30.07 | 131890 | 143146
12 | 31:48.47 | 0:56.48 | 143147 | 147394
13 | 32:45.20 | 2:11.10 | 147395 | 157229
14 | 34:56.30 | 9:00.27 | 157230 | 197756
15 | 43:56.57 | 1:53.43 | 197757 | 206274
16 | 45:50.25 | 1:38.70 | 206275 | 213694
17 | 47:29.20 | 3:44.32 | 213695 | 230526
18 | 51:13.52 | 4:36.43 | 230527 | 251269
19 | 55:50.20 | 2:01.42 | 251270 | 260386
20 | 57:51.62 | 0:42.55 | 260387 | 263591
21 | 58:34.42 | 5:09.10 | 263592 | 286776


Range status and errors

Selected range

Filename C:\Program Files\Exact Audio Copy\Flac\Paisiello - La Daunia Felice.wav

Peak level 87.9 %
Extraction speed 7.7 X
Range quality 100.0 %
Test CRC CBC4B735
Copy CRC CBC4B735
Copy OK

No errors occurred

End of status report

==== Log checksum CD28455FF46347672F934E09848330AECAE8ED5DC9883037DC81A956ADBFFCD1 ====